Mike Oldfield - Airborn (1980)

Download Now

Mike Oldfield - Airborn (1980)

Mike Oldfield - Airborn (1980)
EAC | Flac(Image) + Cue + Log & MP3 CBR 320Kbps
Virgin Records, CDVA 13143 | ~ 473 or 196 Mb | Scans Included
Progressive Rock

~ "Airborn", released only in North America, is an alternate version of the worldwide release of "Platinum" ~



Tracklist:

01. Platinum (18:15)
02. Guilty (03:52)
03. Into Wonderland (03:41)
04. Punkadiddle (05:47)
05. I Got Rhythm (04:43)
06. Tubular Bells (part one) (24:23)
07. Incantations (studio and live) (19:50)

Exact Audio Copy V0.99 prebeta 5 from 4. May 2009

EAC extraction logfile from 26. December 2012, 22:58

MIKE OLDFIELD / Airborn

Used drive : ASUS DRW-24B3ST Adapter: 2 ID: 0

Read mode : Secure
Utilize accurate stream : Yes
Defeat audio cache : Yes
Make use of C2 pointers : No

Read offset correction

: 6
Overread into Lead-In and Lead-Out : No
Fill up missing offset samples with silence : Yes
Delete leading and trailing silent blocks : No
Null samples used in CRC calculations : Yes
Used interface
: Native Win32 interface for Win NT & 2000

Used output format : User Defined Encoder
Selected bitrate : 1024 kBit/s
Quality : High
Add ID3 tag : No
Command line compressor : C:\Program Files (x86)\EAC\WV\wavpack.exe
Additional command line options : -h -hh -m %s %d

TOC of the extracted CD Track | Start | Length | Start sector | End sector
--1 | 0:00.00 | 18:15.00 | 0 | 82124 2 | 18:15.00 | 3:52.60 | 82125 | 99584 3 | 22:07.60 | 3:41.25 | 99585 | 116184 4 | 25:49.10 | 5:47.65 | 116185 | 142274 5 | 31:37.00 | 4:43.68 | 142275 | 163567 6 | 36:20.68 | 24:23.58 | 163568 | 273350 7 | 60:44.51 | 19:50.24 | 273351 | 362624

Range status and errors

Selected range Filename G:\MIKE OLDFIELD\1980- Airborn (US 1984 Virgin Records * CDVA 13143)\MIKE OLDFIELD - Airborn.wav Peak level 100.0 %
Range quality 100.0 %
Test CRC 44C1B92E
Copy CRC 44C1B92E
Copy OK

No errors occurred


AccurateRip summary

Track 1 not present in database
Track 2 not present in database
Track 3 not present in database
Track 4 not present in database
Track 5 not present in database
Track 6 not present in database
Track 7 not present in database

None of the tracks are present in the AccurateRip database

End of status report

foobar2000 1.2.9 / Dynamic Range Meter 1.1.1
log date: 2015-09-24 22:53:13

Analyzed: MIKE OLDFIELD / Airborn

DR Peak RMS Duration Track

DR13 0.00 dB -15.75 dB 18:15 01-Platinum
DR12 -0.04 dB -13.94 dB 3:53 02-Guilty
DR11 -2.27 dB -15.82 dB 3:41 03-Into Wonderland
DR11 -0.57 dB -14.60 dB 5:48 04-Punkadiddle
DR13 -0.40 dB -18.63 dB 4:44 05-I Got Rhythm
DR13 -0.04 dB -17.59 dB 24:24 06-Tubular Bells (part one)
DR12 -0.02 dB -16.08 dB 19:50 07-Incantations (studio and live)

Number of tracks: 7
Official DR value: DR12

Samplerate: 44100 Hz
Channels: 2
Bits per sample: 16
Bitrate: 786 kbps
Codec: FLAC

[CUETools log; Date: 24.09.2015 22:52:59; Version: 2.1.4]
[CTDB TOCID: ZC78AbZMq5h7shlDCuKJwI8J56I-] disk not present in database.
[AccurateRip ID: 0012eaa2-007172ea-6912e307] disk not present in database.

Track Peak [ CRC32 ] [W/O NULL] [ LOG ]
-- 100,0 [44C1B92E] [87BC0129] CRC32
01 100,0 [365A70DE] [9F7792A8]
02 99,4 [8A8D019A] [C60F3BE7]
03 76,9 [EECCBB46] C511D34
04 93,6 [5B8FF285] [93AAAB34]
05 95,5 [8B1E1DB2] [006279F2]
06 99,5 [95E2485C] [3BCD7CE0]
07 99,7 [F744D0DF] [EB1A5D92]

Mike Oldfield - Airborn (1980)

DOWNLOAD LINKS
Buy Premium From My Links To Get Resumable Support & Max Speed & To Support Me


Links are Interchangeable - No Password - Single Extraction
Direct Download

Tags: Oldfield, Airborn

Mike Oldfield - Airborn (1980) Download via Hotfile Rapidshare Fileserve Megaupload & FileSonic, Mike Oldfield - Airborn (1980) free torrent downloads included crack, serial, keygen.Mike Oldfield - Airborn (1980) Fast Download via Rapidshare Hotfile Fileserve Filesonic Megaupload, Mike Oldfield - Airborn (1980) Torrents and Emule Download or anything related.
Leave a Comment
Your Name:
E-Mail:
Add Comments:

Enter Code: