Jean Carn - Trust Me (1982) [2010, Remastered Reissue]

Download Now

Jean Carn - Trust Me (1982) [2010, Remastered Reissue]

Jean Carn - Trust Me (1982) [2010, Remastered Reissue]
R&B, Soul/Funk, Disco | EAC Rip | FLAC, Img+CUE + LOG + Full Artwork-300dpi (JPEG) | 33:25 Min | 241,61 Mb
Label: PTG Records (Netherlands) / Motown Records (USA) | Released: 2010, July, 1

"
Jean Carn's lone Motown effort reunites the singer with producer Norman Connors, whose mid-'70s dates for Buddah effectively launched her solo career. Trust Me proves some distance removed from the jazz-funk context of their previous collaborations, however, instead couching Carn's potent vocals in a slickly commercial, radio-friendly setting that casts neither artist nor producer in a positive light.
"

Jean Carn - Trust Me (1982) [2010, Remastered Reissue]

Jean Carn - Trust Me (1982) [2010, Remastered Reissue]


Release of the album: 1982, May, 13 [LP Motown, Cat.# 6010ML, USA]
Release of this CD: 2010, July, 1 [CD PTG (Netherlands), Cat.# PTG 34097 / UPC: 8717438196978]
©&℗ 1982 Motown Records, Inc. (USA)
Manufactured by PTG Records

Producer - Norman Connors
Co-producer, Arranged By acking Vocal Arrangements - Jean Carn
Executive-Producer - Iris Gordy


Tracklist:

01. Steady On My Mind (03:20)
(Jakki Milligan, Lonnie T. Kirtz Jr., Ronnie Jones)
02. Don't Let Me Slip Away (04:33)
(Coca Dee Williams, Marilyn McLeod)
03. Trust Me (03:50)
(Alfred Johnson)
04. Super Explosion (04:39)
(Marilyn McLeod, Mel Bolton)
05. My Baby Loves Me (03:32)
(Ivy Hunter, Sylvia Moy, William Stevenson)
06. If You Don't Know Me By Now (04:52)
(Kenneth Gamble, Leon Huff)
07. Completeness (04:01)
(Charles Stepney, Rose Johnson)
08. Better To Me (04:37)
(Oliver W. Wells)

Exact Audio Copy V1.0 beta 3 from 29. August 2011

EAC extraction logfile from 26. September 2015, 16:58

Jean Carn / Trust Me

Used drive : PIONEER BD-RW BDR-208D Adapter: 1 ID: 0

Read mode : Secure
Utilize accurate stream : Yes
Defeat audio cache : Yes
Make use of C2 pointers : No

Read offset correction

: 667
Overread into Lead-In and Lead-Out : No
Fill up missing offset samples with silence : Yes
Delete leading and trailing silent blocks : No
Null samples used in CRC calculations : Yes
Used interface
: Native Win32 interface for Win NT & 2000

Used output format : Internal WAV Routines
Sample format : 44.100 Hz; 16 Bit; Stereo

TOC of the extracted CD Track | Start | Length | Start sector | End sector
--1 | 0:00.00 | 3:20.13 | 0 | 15012 2 | 3:20.13 | 4:33.17 | 15013 | 35504 3 | 7:53.30 | 3:49.49 | 35505 | 52728 4 | 11:43.04 | 4:39.35 | 52729 | 73688 5 | 16:22.39 | 3:31.56 | 73689 | 89569 6 | 19:54.20 | 4:52.20 | 89570 | 111489 7 | 24:46.40 | 4:01.34 | 111490 | 129598 8 | 28:47.74 | 4:37.27 | 129599 | 150400

Range status and errors

Selected range Filename D:\BlondStyle\Jean Carn - Trust Me.wav Peak level 98.8 %
Extraction speed 4.0 X
Range quality 100.0 %
Test CRC 50BA0E47
Copy CRC 50BA0E47
Copy OK

No errors occurred


AccurateRip summary

Track 1 accurately ripped (confidence 1) [7DBBB7A9] (AR v1)
Track 2 accurately ripped (confidence 1) [15AD2B9F] (AR v1)
Track 3 accurately ripped (confidence 1) [738AB8DC] (AR v1)
Track 4 accurately ripped (confidence 1) [1DDEBB90] (AR v1)
Track 5 accurately ripped (confidence 1) [A6882961] (AR v1)
Track 6 accurately ripped (confidence 1) D2F3130 (AR v1)
Track 7 accurately ripped (confidence 1) [A18FA59F] (AR v1)
Track 8 accurately ripped (confidence 1) [593AFC14] (AR v1)

All tracks accurately ripped

End of status report

- CUETools DB Plugin V2.1.3

[CTDB TOCID: UCW06dUkoNiEXxhbsTPCJi.ccDU-] found, Submit result: UCW06dUkoNiEXxhbsTPCJi.ccDU- has been confirmed
[d0aa7c0e] (2/2) Accurately ripped

==== Log checksum F99211B52740852022453567B7596BF67341B38553EB1AAC117E1E8022735986 ====

foobar2000 1.3.7 / Dynamic Range Meter 1.1.1
log date: 2015-09-26 17:06:18

Analyzed: Jean Carn / Trust Me

DR Peak RMS Duration Track

DR11 -0.10 dB -13.74 dB 3:20 01-Steady On My Mind
DR12 -0.10 dB -13.66 dB 4:33 02-Don't Let Me Slip Away
DR11 -0.10 dB -13.49 dB 3:50 03-Trust Me
DR11 -0.10 dB -13.73 dB 4:39 04-Super Explosion
DR11 -0.10 dB -12.47 dB 3:32 05-My Baby Loves Me
DR11 -0.10 dB -13.96 dB 4:52 06-If You Don't Know Me By Now
DR11 -0.10 dB -14.42 dB 4:01 07-Completeness
DR11 -0.10 dB -14.14 dB 4:37 08-Better To Me

Number of tracks: 8
Official DR value: DR11

Samplerate: 44100 Hz
Channels: 2
Bits per sample: 16
Bitrate: 1411 kbps
Codec: PCM



password: BlondStyle


DOWNLOAD LINKS
Buy Premium From My Links To Get Resumable Support & Max Speed & To Support Me


Links are Interchangeable - No Password - Single Extraction
Direct Download

Tags: Remastered, Reissue

Jean Carn - Trust Me (1982) [2010, Remastered Reissue] Download via Hotfile Rapidshare Fileserve Megaupload & FileSonic, Jean Carn - Trust Me (1982) [2010, Remastered Reissue] free torrent downloads included crack, serial, keygen.Jean Carn - Trust Me (1982) [2010, Remastered Reissue] Fast Download via Rapidshare Hotfile Fileserve Filesonic Megaupload, Jean Carn - Trust Me (1982) [2010, Remastered Reissue] Torrents and Emule Download or anything related.
Leave a Comment
Your Name:
E-Mail:
Add Comments:

Enter Code: