Carly Simon - Spy (1979) [1997, Reissue, HDCD]

Download Now

Carly Simon - Spy (1979) [1997, Reissue, HDCD]

Carly Simon - Spy (1979) [1997, Reissue, HDCD]
Pop/Rock, AC, Singer/Songwriter | EAC Rip | FLAC, Img+CUE + LOG + Full Artwork-300dpi (JPEG) | 40:44 Min | 282,86 Mb
Label: Elektra Records (USA) | Released: 1997, May, 27

"
Spy is singer-songwriter Carly Simon's ninth album, and eighth studio album, released in 1979. It is also her last album for Elektra Records. The title of the album is a tribute to Anaïs Nin, whose quote "I am an international spy in the house of love", is written across the top on the inside jacket. Simon dedicated the album to producer Arif Mardin, in which she wrote in the liner notes, "Dedicated to Arif who is himself fantastic."
"

Carly Simon - Spy (1979) [1997, Reissue, HDCD]

Carly Simon - Spy (1979) [1997, Reissue, HDCD]


Release of the album: 1979, June [LP Elektra, Cat.# 5E-506, USA]
Release of this CD: 1997, May, 27 [CD Elektra Records (USA), Cat.# 506-2 / UPC: 075596055826]
℗&© 1979 Elektra/Asylum Records,
A Division Of Warner Communications Inc.

Note: Mastered by Joe Gastwirt at OceanView Digital Mastering, Los Angeles, California,
using the Pacific Microsonics HDCD system.
Mastering supervised by Andy Paley.

Producer, Arranged By [Horns, Strings] - Arif Mardin
Acoustic Guitar - David Spinozza (tracks: A2, A3, B2)
Alto Saxophone - David Sanborn (tracks: A1 to A3, B4)
Art Direction, Design - Bob Heimall
Backing Vocals - Carly Simon, James Taylor (tracks: 2, 5, 7, 8), Tim Curry (tracks: 1, 6)
Bass - Tony Levin (tracks: 1, 6, 7), Will Lee (tracks: 2 to 4, 8, 9)
Drums - Rick Marotta (tracks: 1, 2, 8), Steve Gadd (tracks: 1 to 4, 6, 8, 9)
Electric Guitar - David Spinozza (tracks: 1, 2, 4, 7, 8), Joe Caro (tracks: 1, 8), John Hall (tracks: 1)
Electric Piano - Richard Tee (tracks: 2, 5), Warren Bernhardt (tracks: 3, 6 to 9)
Engineer [Assistant] - Mike O'Reilly
Guitar - David Spinozza (tracks: 6, 9), Joe Caro (tracks: 6, 9)


Tracklist:

01. Vengeance (04:14)
(Carly Simon)
02. Just Like You Do (04:15)
(Carly Simon)
03. We're So Close (05:11)
(Carly Simon)
04. Coming To Get You (02:49)
(Carly Simon)
05. Never Been Gone (03:37)
(Jacob Brackman / Carly Simon)
06. Pure Sin (03:56)
(Frank Carillo / Carly Simon)
07. Love You By Heart (03:59)
(Jacob Brackman / Carly Simon / Libby Titus)
08. Spy (04:14)
(Arif Mardin / Carly Simon / James Taylor)
09. Memorial Day (08:29)
(Carly Simon)

Recorded and mixed at Atlantic Studios, N.Y.C. from December, 1978 to April, 1979

Exact Audio Copy V1.0 beta 3 from 29. August 2011

Отчёт EAC об извлечении, выполненном 24. июля 2015, 14:36

Carly Simon / Spy

Дисковод: Optiarc DVD RW AD-7243S Adapter: 5 ID: 0

Режим чтения : Достоверность
Использование точного потока : Да
Отключение кэша аудио : Да
Использование указателей C2 : Нет

Коррекция смещения при чтении : 48
Способность читать области Lead-in и Lead-out : Нет
Заполнение пропущенных сэмплов тишиной : Да
Удаление блоков с тишиной в начале и конце : Нет
При вычислениях CRC использовались нулевые сэмплы : Да
Интерфейс : Встроенный Win32-интерфейс для Win NT/2000

Выходной формат : Пользовательский кодировщик
Выбранный битрейт : 768 kBit/s
Качество : Высокий
Добавление ID3-тега : Нет
Утилита сжатия : C:\Program Files\Exact Audio Copy\Flac\flac.exe
Дополнительные параметры : -V -8 -T "Date=%year%" -T "Genre=%genre%" %source%

TOC извлечённого CD Трек | Старт | Длительность | Начальный сектор | Конечный сектор

1 | 0:00.32 | 4:14.30 | 32 | 19111
2 | 4:14.62 | 4:14.55 | 19112 | 38216
3 | 8:29.42 | 5:10.63 | 38217 | 61529
4 | 13:40.30 | 2:49.15 | 61530 | 74219
5 | 16:29.45 | 3:36.55 | 74220 | 90474
6 | 20:06.25 | 3:56.25 | 90475 | 108199
7 | 24:02.50 | 3:58.50 | 108200 | 126099
8 | 28:01.25 | 4:14.25 | 126100 | 145174
9 | 32:15.50 | 8:29.07 | 145175 | 183356

Характеристики диапазона извлечения и сообщения об ошибках

Выбранный диапазон Имя файла G:\Music\Carly Simon\Carly Simon-Spy 1979\Carly Simon - Spy.wav Пиковый уровень 97.6 %
Скорость извлечения 3.9 X
Качество диапазона 100.0 %
CRC теста BF70DA74
CRC копии BF70DA74
Копирование... OK

Ошибок не произошло

Конец отчёта

==== Контрольная сумма отчёта 22C274A9852C4951C31ACD973555CF24D840D76CFC2944EEE6F6E0152A01F6C7 ====

foobar2000 1.3.7 / Dynamic Range Meter 1.1.1
log date: 2015-09-26 02:31:38

Analyzed: Carly Simon / Spy

DR Peak RMS Duration Track

DR9 -0.23 dB -11.60 dB 4:14 01-Vengeance
DR9 -0.25 dB -12.75 dB 4:15 02-Just Like You Do
DR10 -0.30 dB -13.44 dB 5:11 03-We`re So Close
DR11 -0.21 dB -12.92 dB 2:49 04-Coming To Get You
DR10 -0.98 dB -14.27 dB 3:37 05-Never Been Gone
DR9 -0.24 dB -11.16 dB 3:56 06-Pure Sin
DR9 -0.31 dB -11.51 dB 3:59 07-Love You By Heart
DR10 -0.29 dB -12.43 dB 4:14 08-Spy
DR11 -0.21 dB -13.64 dB 8:29 09-Memorial Day

Number of tracks: 9
Official DR value: DR10

Samplerate: 44100 Hz
Channels: 2
Bits per sample: 16
Bitrate: 881 kbps
Codec: FLAC

All thanks to - voostorg

password: BlondStyle


DOWNLOAD LINKS
Buy Premium From My Links To Get Resumable Support & Max Speed & To Support Me


Links are Interchangeable - No Password - Single Extraction
Direct Download

Tags: Reissue

Carly Simon - Spy (1979) [1997, Reissue, HDCD] Download via Hotfile Rapidshare Fileserve Megaupload & FileSonic, Carly Simon - Spy (1979) [1997, Reissue, HDCD] free torrent downloads included crack, serial, keygen.Carly Simon - Spy (1979) [1997, Reissue, HDCD] Fast Download via Rapidshare Hotfile Fileserve Filesonic Megaupload, Carly Simon - Spy (1979) [1997, Reissue, HDCD] Torrents and Emule Download or anything related.
Leave a Comment
Your Name:
E-Mail:
Add Comments:

Enter Code: