Mike Tramp - Nomad (2015)

Download Now

Mike Tramp - Nomad (2015)

Mike Tramp - Nomad (2015)
EAC | Flac(Image) + Cue + Log & MP3 CBR 320Kbps
Target, TARGET1530CD | Russia | ~ 334 or 115 Mb | Scans Included
Soft Rock / Melodic Rock

"Most long-time hard rock followers are well aware of MIKE TRAMP in terms of his legacy as the front man for 80's platinum recording artist WHITE LION. Considering the fact that a ‘true' reunion is out of the question, given guitarist Vito Bratta's retirement from the scene, that doesn't mean that Mike needs to lay his creative nature down and live in nostalgia. "Nomad" is the latest solo venture, a 10-song adventure that explores more of a softer, Melodic Rock terrain than his heavier, youthful years..."


Tracklist:

01. Give It All You Got
02. Wait Till Forever
03. Counting the Hours
04. Bow and Obey
05. High Like a Mountain
06. No More
07. Stay
08. Who Can You Believe
09. Live to Tell
10. Moving On

Musicians:

Mike Tramp - Vocals, Guitars
Soren Andersen - Guitars
Morten Buchholz - Hammond B3
Jesper Haugaard - Bass
Morten Hellborn - Drums


Exact Audio Copy V1.0 beta 3 from 29. August 2011

EAC extraction logfile from 25. September 2015, 20:38

Mike Tramp / Nomad

Used drive : MATSHITABD-CMB UJ242AS Adapter: 0 ID: 1

Read mode : Secure
Utilize accurate stream : Yes
Defeat audio cache : Yes
Make use of C2 pointers : No

Read offset correction

: 103
Overread into Lead-In and Lead-Out : No
Fill up missing offset samples with silence : Yes
Delete leading and trailing silent blocks : No
Null samples used in CRC calculations : Yes
Used interface
: Installed external ASPI interface

Used output format : User Defined Encoder
Selected bitrate : 1024 kBit/s
Quality : High
Add ID3 tag : Yes
Command line compressor : C:\Program Files (x86)\Exact Audio Copy\Flac\flac.exe
Additional command line options : -V -8 -T "Date=%year%" -T "Genre=%genre%" %source%

TOC of the extracted CD Track | Start | Length | Start sector | End sector
--1 | 0:00.00 | 4:08.39 | 0 | 18638 2 | 4:08.39 | 4:40.49 | 18639 | 39687 3 | 8:49.13 | 5:07.70 | 39688 | 62782 4 | 13:57.08 | 4:47.42 | 62783 | 84349 5 | 18:44.50 | 4:58.00 | 84350 | 106699 6 | 23:42.50 | 3:29.69 | 106700 | 122443 7 | 27:12.44 | 4:17.72 | 122444 | 141790 8 | 31:30.41 | 4:16.73 | 141791 | 161063 9 | 35:47.39 | 4:48.52 | 161064 | 182715
10 | 40:36.16 | 4:59.60 | 182716 | 205200

Range status and errors

Selected range Filename C:\EACrip\Mike Tramp - Nomad.wav Peak level 96.5 %
Extraction speed 3.9 X
Range quality 99.9 %
Test CRC E33A2402
Copy CRC E33A2402
Copy OK

No errors occurred


AccurateRip summary

Track 1 not present in database
Track 2 not present in database
Track 3 not present in database
Track 4 not present in database
Track 5 not present in database
Track 6 not present in database
Track 7 not present in database
Track 8 not present in database
Track 9 not present in database
Track 10 not present in database

None of the tracks are present in the AccurateRip database

End of status report

==== Log checksum 40A2A571CFD6CC66E9162B73978065960010BDAD92B8BAABE15A98A20C147B69 ====

foobar2000 1.2.9 / Dynamic Range Meter 1.1.1
log date: 2015-09-27 09:43:45

Analyzed: Mike Tramp / Nomad

DR Peak RMS Duration Track

DR6 -0.34 dB -6.75 dB 4:09 01-Give It All You Got
DR5 -0.34 dB -6.12 dB 4:41 02-Wait Till Forever
DR5 -0.34 dB -6.68 dB 5:08 03-Counting the Hours
DR7 -0.34 dB -7.94 dB 4:48 04-Bow and Obey
DR6 -0.34 dB -7.00 dB 4:58 05-High Like a Mountain
DR6 -0.34 dB -7.04 dB 3:30 06-No More
DR6 -0.34 dB -7.45 dB 4:18 07-Stay
DR5 -0.34 dB -6.80 dB 4:17 08-Who Can You Believe
DR6 -0.30 dB -8.24 dB 4:49 09-to Tell
DR5 -0.34 dB -6.95 dB 5:00 10-Moving On

Number of tracks: 10
Official DR value: DR6

Samplerate: 44100 Hz
Channels: 2
Bits per sample: 16
Bitrate: 973 kbps
Codec: FLAC

[CUETools log; Date: 27.09.2015 9:31:12; Version: 2.1.4]
[CTDB TOCID: shgcE9_Rux3YMZXtdFFdxnoqjsk-] found.
Track | CTDB Status
1 | (2/2) Accurately ripped
2 | (2/2) Accurately ripped
3 | (2/2) Accurately ripped
4 | (2/2) Accurately ripped
5 | (2/2) Accurately ripped
6 | (2/2) Accurately ripped
7 | (2/2) Accurately ripped
8 | (2/2) Accurately ripped
9 | (2/2) Accurately ripped
10 | (2/2) Accurately ripped
[AccurateRip ID: 00112c00-00893ff8-7e0ab00a] disk not present in database.

Track Peak [ CRC32 ] [W/O NULL] [ LOG ]
-- 96,5 [E33A2402] [C4255205] CRC32
01 96,1 [727080F7] [82022754]
02 96,1 [3398C2BF] [535673DD]
03 96,1 [9177669C] [A02BB6C8]
04 96,1 [CC763BF1] [A87DA4CA]
05 96,1 [DB948E46] [09912C8B]
06 96,2 [9EB06785] [4F862509]
07 96,1 [5FEAD88C] [53BB761D]
08 96,1 [E4599F21] [007FBA8E]
09 96,5 [2043FB00] [9B6ACD7C]
10 96,1 [AF2A5325] [7AA44B5A]

Mike Tramp - Nomad (2015)

DOWNLOAD LINKS:
(Premium Recommended)


All above links are interchangable. No password
Direct Download

Mike Tramp - Nomad (2015) Download via Hotfile Rapidshare Fileserve Megaupload & FileSonic, Mike Tramp - Nomad (2015) free torrent downloads included crack, serial, keygen.Mike Tramp - Nomad (2015) Fast Download via Rapidshare Hotfile Fileserve Filesonic Megaupload, Mike Tramp - Nomad (2015) Torrents and Emule Download or anything related.
Leave a Comment
Your Name:
E-Mail:
Add Comments:

Enter Code: