VA - Once Were Warriors: Soundtrack Album (1994)

Download Now

VA - Once Were Warriors: Soundtrack Album (1994)

VA - Once Were Warriors: Soundtrack Album (1994)
EAC | FLAC | Tracks (Cue&Log) ~ 403 Mb (incl 5%) | Mp3 (CBR320) ~ 173 Mb (incl 5%) | Scans included
Genre: Soundtrack, Score | Label: Milan | # 74321 24902-2 | Time: 00:58:21

"Once Were Warriors is a 1994 New Zealand drama film based on New Zealand author Alan Duff's bestselling 1990 first novel. The film tells the story of the Hekes, an urban Māori family, and their problems with poverty, alcoholism and domestic violence, mostly brought on by family patriarch Jake. It was directed by Lee Tamahori and stars Rena Owen and Temuera Morrison."

"This is my favorite soundtrack. It is unfortunate that corporate consolidation of the music industry has meant that we can only get access to such excellent artists when they happen to be on a soundtrack. Maona and the Moa Hunters, in particular, lay down some excellent tracks with great politics. They have two other cd's out in New Zealand, which are not available in the US. The title song is also worth noting, as is the interspersed traditional music that works really well with the more modern tracks. Overall, it is a great mix.

Review by Amazon customer
"




Tracklist:

01. Unknown Artist - Karanga (00:14)
02. Tama Renata - Once Were Warriors (The Awakening) (01:28)
03. Gifted & Brown - So Much Soul (03:18)
04. Murray Grindlay, Murray McNabb & Hirini Melbourne - Sunrise Flutes (Koauau) (00:30)
05. Southside Of Bombay - What's The Time Mr Wolf (03:59)
06. Murray Grindlay & Murray McNabb - Grace In The Alley (00:45)
07. Herbs - HomeGrown (04:16)
08. Murray Grindlay & Murray McNabb - Grace Visiting Toot (00:56)
09. Survival - Rua Kenana (04:53)
10. Hirini Melbourne - Patere (00:25)
11. Moana & The Moahunters - Tahi (Roots Mix) (04:54)
12. Murray Grindlay, Murray McNabb & Hirini Melbourne - Screaming Flutes- Haka (Koauau) (00:53)
13. Merenia - U Know (I Like It) (04:30)
14. Murray Grindlay & Murray McNabb - Radio Thief (00:32)
15. Maree Sheenan - Kia Tu Mahea (To Be Free) (03:09)
16. Murray Grindlay & Murray McNabb - Gang Car (01:25)
17. Upper Hut Posse - Ragga Girl (03:48)
18. Ardijah - Gim'me Time (05:27)
19. Jake & Beth - Here Is My Heart (Live) (02:43)
20. E Tu - Whakamutungia Tenei Mahi (05:20)
21. Murray Grindlay, Murray McNabb & Tama Renata - Bully Gets His (01:13)
22. Tama Renata - Theme From Once Were Warriors (03:33)


Exact Audio Copy V1.0 beta 4 from 7. December 2014

EAC extraction logfile from 7. September 2015, 15:11

Various Artists / Once Were Warriors (Soundtrack Album)

Used drive : TSSTcorpCDDVDW SH-224DB Adapter: 1 ID: 0

Read mode : Secure
Utilize accurate stream : Yes
Defeat audio cache : Yes
Make use of C2 pointers : No

Read offset correction

: 6
Overread into Lead-In and Lead-Out : No
Fill up missing offset samples with silence : Yes
Delete leading and trailing silent blocks : No
Null samples used in CRC calculations : Yes
Used interface
: Native Win32 interface for Win NT & 2000
Gap handling
: Appended to previous track

Used output format : User Defined Encoder
Selected bitrate : 896 kBit/s
Quality : High
Add ID3 tag : No
Command line compressor : C:\Program Files\Exact Audio Copy\Flac\flac.exe
Additional command line options : -6 -V -T "ARTIST=%artist%" -T "TITLE=%title%" -T "ALBUM=%albumtitle%" -T "DATE=%year%" -T "TRACKNUMBER=%tracknr%" -T "GENRE=%genre%" -T "COMMENT=%comment%" %source% -o %dest%

TOC of the extracted CD Track | Start | Length | Start sector | End sector
--1 | 0:00.33 | 0:14.12 | 33 | 1094 2 | 0:14.45 | 1:28.40 | 1095 | 7734 3 | 1:43.10 | 3:18.63 | 7735 | 22647 4 | 5:01.73 | 0:30.35 | 22648 | 24932 5 | 5:32.33 | 3:59.27 | 24933 | 42884 6 | 9:31.60 | 0:45.45 | 42885 | 46304 7 | 10:17.30 | 4:16.23 | 46305 | 65527 8 | 14:33.53 | 0:56.10 | 65528 | 69737 9 | 15:29.63 | 4:53.22 | 69738 | 91734
10 | 20:23.10 | 0:25.55 | 91735 | 93664
11 | 20:48.65 | 4:54.08 | 93665 | 115722
12 | 25:42.73 | 0:53.70 | 115723 | 119767
13 | 26:36.68 | 4:30.62 | 119768 | 140079
14 | 31:07.55 | 0:32.40 | 140080 | 142519
15 | 31:40.20 | 3:09.28 | 142520 | 156722
16 | 34:49.48 | 1:25.00 | 156723 | 163097
17 | 36:14.48 | 3:48.42 | 163098 | 180239
18 | 40:03.15 | 5:27.05 | 180240 | 204769
19 | 45:30.20 | 2:43.63 | 204770 | 217057
20 | 48:14.08 | 5:20.47 | 217058 | 241104
21 | 53:34.55 | 1:13.65 | 241105 | 246644
22 | 54:48.45 | 3:33.48 | 246645 | 262667

Track 1 Filename C:\New Folder\01 - Unknown Artist - Karanga.wav Pre-gap length 0:00:02.33 Peak level 54.8 %
Extraction speed 0.6 X
Track quality 100.0 %
Test CRC 93E4A195
Copy CRC 93E4A195
Accurately ripped (confidence 5) [8A0EFF63] (AR v1)
Copy OK

Track 2 Filename C:\New Folder\02 - Tama Renata - Once Were Warriors (The Awakening).wav Peak level 69.2 %
Extraction speed 1.6 X
Track quality 100.0 %
Test CRC BEB4504D
Copy CRC BEB4504D
Accurately ripped (confidence 5) [5760EB69] (AR v1)
Copy OK

Track 3 Filename C:\New Folder\03 - Gifted & Brown - So Much Soul.wav Peak level 100.0 %
Extraction speed 1.7 X
Track quality 99.9 %
Test CRC 8D5267E6
Copy CRC 8D5267E6
Accurately ripped (confidence 5) [EE8B81A5] (AR v1)
Copy OK

Track 4 Filename C:\New Folder\04 - Murray Grindlay, Murray McNabb & Hirini Melbourne - Sunrise Flutes (Koauau).wav Peak level 30.7 %
Extraction speed 0.9 X
Track quality 100.0 %
Test CRC 6914A5B9
Copy CRC 6914A5B9
Accurately ripped (confidence 5) [FB940649] (AR v1)
Copy OK

Track 5 Filename C:\New Folder\05 - Southside Of Bombay - What's The Time Mr Wolf.wav Peak level 100.0 %
Extraction speed 1.8 X
Track quality 99.9 %
Test CRC B0A2D8A8
Copy CRC B0A2D8A8
Accurately ripped (confidence 5) [AFAA4F47] (AR v1)
Copy OK

Track 6 Filename C:\New Folder\06 - Murray Grindlay & Murray McNabb - Grace In The Alley.wav Peak level 63.4 %
Extraction speed 1.2 X
Track quality 100.0 %
Test CRC BEF405AF
Copy CRC BEF405AF
Accurately ripped (confidence 5) [4D70D9A8] (AR v1)
Copy OK

Track 7 Filename C:\New Folder\07 - Herbs - HomeGrown.wav Peak level 100.0 %
Extraction speed 1.8 X
Track quality 99.9 %
Test CRC C9E91A2C
Copy CRC C9E91A2C
Accurately ripped (confidence 5) [F0E0B1AD] (AR v1)
Copy OK

Track 8 Filename C:\New Folder\08 - Murray Grindlay & Murray McNabb - Grace Visiting Toot.wav Peak level 100.0 %
Extraction speed 1.3 X
Track quality 100.0 %
Test CRC C78E8DDA
Copy CRC C78E8DDA
Accurately ripped (confidence 5) [37DA0157] (AR v1)
Copy OK

Track 9 Filename C:\New Folder\09 - Survival - Rua Kenana.wav Pre-gap length 0:00:00.31 Peak level 100.0 %
Extraction speed 2.1 X
Track quality 100.0 %
Test CRC F65227E6
Copy CRC F65227E6
Accurately ripped (confidence 5) [EF5AA6EE] (AR v1)
Copy OK

Track 10 Filename C:\New Folder\10 - Hirini Melbourne - Patere.wav Peak level 88.1 %
Extraction speed 0.9 X
Track quality 100.0 %
Test CRC 443D315F
Copy CRC 443D315F
Accurately ripped (confidence 5) [3CBFEA6E] (AR v1)
Copy OK

Track 11 Filename C:\New Folder\11 - Moana & The Moahunters - Tahi (Roots Mix).wav Peak level 94.9 %
Extraction speed 1.9 X
Track quality 99.9 %
Test CRC 071D66D3
Copy CRC 071D66D3
Accurately ripped (confidence 5) [8307F965] (AR v1)
Copy OK

Track 12 Filename C:\New Folder\12 - Murray Grindlay, Murray McNabb & Hirini Melbourne - Screaming Flutes- Haka (Koauau).wav Peak level 64.9 %
Extraction speed 1.4 X
Track quality 100.0 %
Test CRC 10A56EA8
Copy CRC 10A56EA8
Accurately ripped (confidence 5) [5DA9C174] (AR v1)
Copy OK

Track 13 Filename C:\New Folder\13 - Merenia - U Know (I Like It).wav Peak level 92.5 %
Extraction speed 2.1 X
Track quality 100.0 %
Test CRC D94BC27D
Copy CRC D94BC27D
Accurately ripped (confidence 5) [3526F450] (AR v1)
Copy OK

Track 14 Filename C:\New Folder\14 - Murray Grindlay & Murray McNabb - Radio Thief.wav Peak level 95.6 %
Extraction speed 0.7 X
Track quality 99.6 %
Test CRC 1D48E499
Copy CRC 1D48E499
Accurately ripped (confidence 5) [5B67C8D9] (AR v1)
Copy OK

Track 15 Filename C:\New Folder\15 - Maree Sheenan - Kia Tu Mahea (To Be Free).wav Peak level 80.5 %
Extraction speed 2.0 X
Track quality 100.0 %
Test CRC 7198F5C2
Copy CRC 7198F5C2
Accurately ripped (confidence 5) [2DC77660] (AR v1)
Copy OK

Track 16 Filename C:\New Folder\16 - Murray Grindlay & Murray McNabb - Gang Car.wav Peak level 75.8 %
Extraction speed 1.3 X
Track quality 99.8 %
Test CRC 8F57632F
Copy CRC 8F57632F
Accurately ripped (confidence 5) [5523B801] (AR v1)
Copy OK

Track 17 Filename C:\New Folder\17 - Upper Hut Posse - Ragga Girl.wav Pre-gap length 0:00:00.48 Peak level 92.0 %
Extraction speed 2.0 X
Track quality 100.0 %
Test CRC 956B0C39
Copy CRC 956B0C39
Accurately ripped (confidence 5) [665E0C0F] (AR v1)
Copy OK

Track 18 Filename C:\New Folder\18 - Ardijah - Gim'me Time.wav Peak level 93.3 %
Extraction speed 2.2 X
Track quality 100.0 %
Test CRC 15AFADCD
Copy CRC 15AFADCD
Accurately ripped (confidence 5) [25EE8DF3] (AR v1)
Copy OK

Track 19 Filename C:\New Folder\19 - Jake & Beth - Here Is My Heart (Live).wav Peak level 96.3 %
Extraction speed 1.9 X
Track quality 100.0 %
Test CRC E0B229DA
Copy CRC E0B229DA
Accurately ripped (confidence 5) [7E6185A9] (AR v1)
Copy OK

Track 20 Filename C:\New Folder\20 - E Tu - Whakamutungia Tenei Mahi.wav Peak level 84.7 %
Extraction speed 2.2 X
Track quality 100.0 %
Test CRC 7E5A8DED
Copy CRC 7E5A8DED
Accurately ripped (confidence 5) [FD41DBE3] (AR v1)
Copy OK

Track 21 Filename C:\New Folder\21 - Murray Grindlay, Murray McNabb & Tama Renata - Bully Gets His.wav Peak level 67.5 %
Extraction speed 1.6 X
Track quality 100.0 %
Test CRC 2DE431AC
Copy CRC 2DE431AC
Accurately ripped (confidence 5) [DB5288C5] (AR v1)
Copy OK

Track 22 Filename C:\New Folder\22 - Tama Renata - Theme From Once Were Warriors.wav Peak level 96.9 %
Extraction speed 2.0 X
Track quality 100.0 %
Test CRC 61A81B18
Copy CRC 61A81B18
Accurately ripped (confidence 5) [8DE96EB2] (AR v1)
Copy OK

All tracks accurately ripped

No errors occurred

End of status report

- CUETools DB Plugin V2.1.4

[CTDB TOCID: s4vGPBsTEGJQ4Lb2pqSAAYzaC_Y-] found
Submit result: already submitted
Track | CTDB Status
1 | (3/3) Accurately ripped
2 | (3/3) Accurately ripped
3 | (3/3) Accurately ripped
4 | (3/3) Accurately ripped
5 | (3/3) Accurately ripped
6 | (3/3) Accurately ripped
7 | (3/3) Accurately ripped
8 | (3/3) Accurately ripped
9 | (3/3) Accurately ripped
10 | (3/3) Accurately ripped
11 | (3/3) Accurately ripped
12 | (3/3) Accurately ripped
13 | (3/3) Accurately ripped
14 | (3/3) Accurately ripped
15 | (3/3) Accurately ripped
16 | (3/3) Accurately ripped
17 | (3/3) Accurately ripped
18 | (3/3) Accurately ripped
19 | (3/3) Accurately ripped
20 | (3/3) Accurately ripped
21 | (3/3) Accurately ripped
22 | (3/3) Accurately ripped

==== Log checksum 023E8CBF1584C341BB06151996178D8DDA43464006198263E31F6F96C4869E90 ====

foobar2000 1.2 / Dynamic Range Meter 1.1.1
log date: 2015-09-27 19:59:30

Analyzed: Ardijah / Once Were Warriors (Soundtrack Album) (1) E Tu / Once Were Warriors (Soundtrack Album) (2) Gifted & Brown / Once Were Warriors (Soundtrack Album) (3) Herbs / Once Were Warriors (Soundtrack Album) (4) Hirini Melbourne / Once Were Warriors (Soundtrack Album) (5) Jake & Beth / Once Were Warriors (Soundtrack Album) (6) Maree Sheenan / Once Were Warriors (Soundtrack Album) (7) Merenia / Once Were Warriors (Soundtrack Album) (8) Moana & The Moahunters / Once Were Warriors (Soundtrack Album) (9) Murray Grindlay & Murray McNabb / Once Were Warriors (Soundtrack Album) (10-13) Murray Grindlay, Murray McNabb & Hirini Melbourne / Once Were Warriors (Soundtrack Album) (14-15) Murray Grindlay, Murray McNabb & Tama Renata / Once Were Warriors (Soundtrack Album) (16) Southside Of Bombay / Once Were Warriors (Soundtrack Album) (17) Survival / Once Were Warriors (Soundtrack Album) (18) Tama Renata / Once Were Warriors (Soundtrack Album) (19-20) Unknown Artist / Once Were Warriors (Soundtrack Album) (21) Upper Hut Posse / Once Were Warriors (Soundtrack Album) (22)

DR Peak RMS Duration Track

DR12 -0.60 dB -15.83 dB 5:27 18-Gim'me Time
DR11 -1.44 dB -14.48 dB 5:21 20-Whakamutungia Tenei Mahi
DR13 0.00 dB -14.16 dB 3:19 03-So Much Soul
DR13 0.00 dB -14.85 dB 4:16 07-HomeGrown
DR13 -1.10 dB -20.23 dB 0:26 10-Patere
DR13 -0.33 dB -17.70 dB 2:44 19-Here Is My Heart (Live)
DR10 -1.88 dB -14.55 dB 3:09 15-Kia Tu Mahea (To Be Free)
DR13 -0.68 dB -15.29 dB 4:31 13-U Know (I Like It)
DR13 -0.45 dB -15.63 dB 4:54 11-Tahi (Roots Mix)
DR11 -3.95 dB -16.97 dB 0:46 06-Grace In The Alley
DR16 0.00 dB -17.67 dB 0:56 08-Grace Visiting Toot
DR11 -0.38 dB -15.38 dB 0:33 14-Radio Thief
DR11 -2.40 dB -14.93 dB 1:25 16-Gang Car
DR5 -10.23 dB -17.49 dB 0:30 04-Sunrise Flutes (Koauau)
DR11 -3.75 dB -17.85 dB 0:54 12-Screaming Flutes- Haka (Koauau)
DR8 -3.40 dB -14.97 dB 1:14 21-Bully Gets His
DR14 0.00 dB -15.01 dB 3:59 05-What's The Time Mr Wolf
DR14 0.00 dB -15.36 dB 4:53 09-Rua Kenana
DR9 -3.19 dB -13.88 dB 1:29 02-Once Were Warriors (The Awakening)
DR12 -0.27 dB -13.49 dB 3:34 22-Theme From Once Were Warriors
DR7 -5.22 dB -13.95 dB 0:14 01-Karanga
DR11 -0.72 dB -13.10 dB 3:49 17-Ragga Girl

Number of tracks: 22
Official DR value: DR11

Samplerate: 44100 Hz
Channels: 2
Bits per sample: 16
Bitrate: 883 kbps
Codec: FLAC

VA - Once Were Warriors: Soundtrack Album (1994)

VA - Once Were Warriors: Soundtrack Album (1994)

All thanks to original releaser - alekow
Password: designol

DOWNLOAD LINKS
Buy Premium From My Links To Get Resumable Support & Max Speed & To Support Me


Links are Interchangeable - No Password - Single Extraction
Direct Download

Tags: Warriors, Soundtrack

VA - Once Were Warriors: Soundtrack Album (1994) Download via Hotfile Rapidshare Fileserve Megaupload & FileSonic, VA - Once Were Warriors: Soundtrack Album (1994) free torrent downloads included crack, serial, keygen.VA - Once Were Warriors: Soundtrack Album (1994) Fast Download via Rapidshare Hotfile Fileserve Filesonic Megaupload, VA - Once Were Warriors: Soundtrack Album (1994) Torrents and Emule Download or anything related.
Leave a Comment
Your Name:
E-Mail:
Add Comments:

Enter Code: