Public Image Ltd. - Paris Au Printemps (1980) [2015, Universal Music Japan, UICY-40156]

Download Now

Public Image Ltd. - Paris Au Printemps (1980) [2015, Universal Music Japan, UICY-40156]

Public Image Ltd. - Paris Au Printemps (1980)
EAC | Flac(Image) + Cue + Log & MP3 CBR 320Kbps
Universal Music Japan, UICY-40156 | ~ 279 or 103 Mb | Scans(png) -> 112 Mb
Alternative Rock / Post Punk

"Released primarily to cut down on bootlegs of the same concerts from early 1980, Paris au Printemps catches Public Image Limited at the peak of the band's career. While the album was criticized at the time for being nothing more than a live album and thus not adhering to the group's avant-garde rhetoric, the music more than makes up for any breakdown in the band's ideology..."


Tracklist:

01 Theme
02 Chant
03 Careering
04 Bad Baby
05 Low Life
06 Attack
07 Poptones

Exact Audio Copy V1.1 from 23. June 2015

EAC extraction logfile from 22. September 2015, 19:25

PiL / Paris Au Printemps PT-SHM

Used drive : PLEXTOR BD-R PX-B950SA Adapter: 1 ID: 1

Read mode : Secure
Utilize accurate stream : Yes
Defeat audio cache : Yes
Make use of C2 pointers : No

Read offset correction

: 6
Overread into Lead-In and Lead-Out : No
Fill up missing offset samples with silence : Yes
Delete leading and trailing silent blocks : No
Null samples used in CRC calculations : Yes
Used interface
: Native Win32 interface for Win NT & 2000

Used output format : Internal WAV Routines
Sample format : 44.100 Hz; 16 Bit; Stereo

TOC of the extracted CD Track | Start | Length | Start sector | End sector
--1 | 0:00.00 | 8:38.40 | 0 | 38889 2 | 8:38.40 | 4:26.62 | 38890 | 58901 3 | 13:05.27 | 7:13.00 | 58902 | 91376 4 | 20:18.27 | 6:24.33 | 91377 | 120209 5 | 26:42.60 | 4:20.47 | 120210 | 139756 6 | 31:03.32 | 3:00.60 | 139757 | 153316 7 | 34:04.17 | 7:05.08 | 153317 | 185199

Range status and errors

Selected range Filename C:\Users\Meijin\Desktop\ALLexxess\PiL\1980 Paris In The Spring (Mini LP PT-SHM Universal Japan 2015)\PiL - Paris Au Printemps PT-SHM.wav Peak level 100.0 %
Extraction speed 6.6 X
Range quality 100.0 %
Test CRC A05F76B1
Copy CRC A05F76B1
Copy OK

No errors occurred


AccurateRip summary

Track 1 not present in database
Track 2 not present in database
Track 3 not present in database
Track 4 not present in database
Track 5 not present in database
Track 6 not present in database
Track 7 not present in database

None of the tracks are present in the AccurateRip database

End of status report

- CUETools DB Plugin V2.1.6

[CTDB TOCID: kzA6_s1xfSYZmZtw4c0hzcZ8ZVI-] disk not present in database
Submit result: kzA6_s1xfSYZmZtw4c0hzcZ8ZVI- has been uploaded

==== Log checksum 73F1E868AD4365C8D4A67FC67635135CD8A9A4E15D49C6E2166C1A187C28D1B1 ====

foobar2000 1.2.9 / Dynamic Range Meter 1.1.1
log date: 2015-09-28 10:21:10

Analyzed: PiL / Paris Au Printemps PT-SHM

DR Peak RMS Duration Track

DR10 0.00 dB -12.60 dB 8:39 01-Theme
DR11 0.00 dB -11.78 dB 4:27 02-Chant
DR12 0.00 dB -13.80 dB 7:13 03-Careering
DR12 0.00 dB -13.66 dB 6:24 04-Bad baby
DR10 0.00 dB -12.12 dB 4:21 05-Lowlife
DR10 0.00 dB -11.14 dB 3:01 06-Attack
DR9 0.00 dB -10.71 dB 7:05 07-Poptones

Number of tracks: 7
Official DR value: DR10

Samplerate: 44100 Hz
Channels: 2
Bits per sample: 16
Bitrate: 918 kbps
Codec: FLAC

[CUETools log; Date: 28.09.2015 10:13:07; Version: 2.1.4]
[CTDB TOCID: kzA6_s1xfSYZmZtw4c0hzcZ8ZVI-] found.
Track | CTDB Status
1 | (1/1) Accurately ripped
2 | (1/1) Accurately ripped
3 | (1/1) Accurately ripped
4 | (1/1) Accurately ripped
5 | (1/1) Accurately ripped
6 | (1/1) Accurately ripped
7 | (1/1) Accurately ripped
[AccurateRip ID: 000c04c5-00466906-4f09a507] disk not present in database.

Track Peak [ CRC32 ] [W/O NULL] [ LOG ]
-- 100,0 [A05F76B1] [0BC3FF5A] CRC32
01 100,0 [38A77C58] [7BD1D515]
02 100,0 [1A37E1C0] [A31EFC07]
03 100,0 [D459CAA2] [85AFFA5E]
04 100,0 [5A15ED80] [37940794]
05 100,0 [4599E155] [31CA1179]
06 100,0 [F959D96B] [585FAB42]
07 100,0 [5175DDC1] [98DACC22]

Public Image Ltd. - Paris Au Printemps (1980) [2015, Universal Music Japan, UICY-40156]

All thanks go to ALLexxess



Download Public Image Ltd. - Paris Au Printemps (1980):

DOWNLOAD LINKS
Buy Premium From My Links To Get Resumable Support & Max Speed & To Support Me


Links are Interchangeable - No Password - Single Extraction
Direct Download

Tags: Public, Printemps, Universal

Public Image Ltd. - Paris Au Printemps (1980) [2015, Universal Music Japan, UICY-40156] Download via Hotfile Rapidshare Fileserve Megaupload & FileSonic, Public Image Ltd. - Paris Au Printemps (1980) [2015, Universal Music Japan, UICY-40156] free torrent downloads included crack, serial, keygen.Public Image Ltd. - Paris Au Printemps (1980) [2015, Universal Music Japan, UICY-40156] Fast Download via Rapidshare Hotfile Fileserve Filesonic Megaupload, Public Image Ltd. - Paris Au Printemps (1980) [2015, Universal Music Japan, UICY-40156] Torrents and Emule Download or anything related.
Leave a Comment
Your Name:
E-Mail:
Add Comments:

Enter Code: