Lillo Thomas - Let Me Be Yours (1983) [2013, Remastered Reissue]

Download Now

Lillo Thomas - Let Me Be Yours (1983) [2013, Remastered Reissue]

Lillo Thomas - Let Me Be Yours (1983) [2013, Remastered Reissue]
R&B, Soul/Funk, Urban, Post Disco | EAC Rip | FLAC, Img+CUE + LOG + Full Artwork-600dpi (JPEG) | 39:18 Min | 308,69 Mb
Label: PTG Records (Netherlands) / Capitol Records (USA) | Released: 2013, October, 21

"
Lillo Thomas (born 1961, Brooklyn, New York, United States), is an American former Olympic-qualifying athlete and later a soul musician. He reached the peak of his success as a recording artist in the 1980s. His most famous songs include "Sexy Girl" and "I'm in Love."
"

Lillo Thomas - Let Me Be Yours (1983) [2013, Remastered Reissue]

Lillo Thomas - Let Me Be Yours (1983) [2013, Remastered Reissue]


Release of the album: 1983 [LP Capitol Records, Cat.# ST-12290, USA]
Release of this CD: 2013, October, 21 [CD PTG (Netherlands), Cat.# PTG 34162 / UPC: 8717438197623]
℗ & © 1983 Capitol Records, Inc. Marketed by PTG Records.
Made in the EU
Note: Digitally remastered from vinyl

Producer: Paul Laurence Jones III
Executive Producer: Beau Huggins
Photography By - Brian Hagiwara

Backing Vocals - B.J. Nelson, Brenda White, Freddy Jackson, Lillo Thomas, Melba Moore, Paul Laurence III, Phillip Ballou, Tawatha Agee


Tracklist:

01. "I Love It" (05:22)
(Paul Laurence)
02. "Trust Me'" (03:59)
(Freddie Jackson, Paul Laurence)
03. "Who Do You Think You Are?" (05:11)
(Paul Laurence)
04. "Just My Imagination (Running Away With Me)" (04:51)
(Norman Whitfield, Barrett Strong)
05. "Hot Love" (04:38)
(Paul Laurence, Lillo Thomas)
06. "(You're A) Good Girl" (05:20)
(Paul Laurence)
07. "Joy Of Your Love" (04:40)
(Paul Laurence)
08. "Let Me Be Yours" (04:08)
(Lillo Thomas, Paul Laurence)

Exact Audio Copy V1.0 beta 3 from 29. August 2011

EAC extraction logfile from 23. March 2014, 2:54

Lillo Thomas / Let Me Be Yours

Used drive : ATAPI DVD DW 8X16X8X16 Adapter: 0 ID: 2

Read mode : Secure
Utilize accurate stream : Yes
Defeat audio cache : Yes
Make use of C2 pointers : No

Read offset correction

: 618
Overread into Lead-In and Lead-Out : No
Fill up missing offset samples with silence : Yes
Delete leading and trailing silent blocks : No
Null samples used in CRC calculations : Yes
Used interface
: Native Win32 interface for Win NT & 2000

Used output format : Internal WAV Routines
Sample format : 44.100 Hz; 16 Bit; Stereo

TOC of the extracted CD Track | Start | Length | Start sector | End sector
--1 | 0:00.00 | 5:21.51 | 0 | 24125 2 | 5:21.51 | 3:59.06 | 24126 | 42056 3 | 9:20.57 | 5:10.67 | 42057 | 65373 4 | 14:31.49 | 4:50.49 | 65374 | 87172 5 | 19:22.23 | 4:38.22 | 87173 | 108044 6 | 24:00.45 | 5:19.68 | 108045 | 132037 7 | 29:20.38 | 4:39.66 | 132038 | 153028 8 | 34:00.29 | 5:18.00 | 153029 | 176878

Range status and errors

Selected range Filename C:\BlondStyle\Lillo Thomas - Let Me Be Yours.wav Peak level 98.8 %
Extraction speed 7.8 X
Range quality 100.0 %
Test CRC BFA7171B
Copy CRC BFA7171B
Copy OK

No errors occurred


AccurateRip summary

Track 1 accurately ripped (confidence 1) [F076DC73] (AR v2)
Track 2 accurately ripped (confidence 1) CC091C6 (AR v2)
Track 3 accurately ripped (confidence 1) [9C2D9E08] (AR v2)
Track 4 accurately ripped (confidence 1) [25CDAC63] (AR v2)
Track 5 accurately ripped (confidence 1) [CDCF4EF8] (AR v2)
Track 6 accurately ripped (confidence 1) [97F5B2B6] (AR v2)
Track 7 accurately ripped (confidence 1) [9CF0B39D] (AR v2)
Track 8 accurately ripped (confidence 1) [486D3A6B] (AR v2)

All tracks accurately ripped

End of status report

==== Log checksum 2C9F06004B4596B3723D437A4BE78E6D7AA4190345A74911F195ED35CF2D3A0D ====

foobar2000 1.3.7 / Dynamic Range Meter 1.1.1
log date: 2015-09-27 21:26:17

Analyzed: Lillo Thomas / Let Me Be Yours

DR Peak RMS Duration Track

DR13 -0.19 dB -14.73 dB 5:22 01-I Love It
DR13 -0.13 dB -14.27 dB 3:59 02-Trust Me
DR12 -0.13 dB -13.92 dB 5:11 03-Who Do You Think Your Are
DR13 -0.10 dB -15.20 dB 4:51 04-Just My Imagination (Running Away With Me)
DR11 -0.12 dB -12.86 dB 4:38 05-Hot Love
DR12 -0.12 dB -13.51 dB 5:20 06-(You're A) Good Girl
DR12 -0.14 dB -13.63 dB 4:40 07-Joy Of Your Love
DR12 -0.14 dB -14.20 dB 5:18 08-Let Me Be Yours

Number of tracks: 8
Official DR value: DR12

Samplerate: 44100 Hz
Channels: 2
Bits per sample: 16
Bitrate: 919 kbps
Codec: FLAC



password: BlondStyle


DOWNLOAD LINKS
Buy Premium From My Links To Get Resumable Support & Max Speed & To Support Me


Links are Interchangeable - No Password - Single Extraction
Direct Download

Tags: Thomas, Remastered, Reissue

Lillo Thomas - Let Me Be Yours (1983) [2013, Remastered Reissue] Download via Hotfile Rapidshare Fileserve Megaupload & FileSonic, Lillo Thomas - Let Me Be Yours (1983) [2013, Remastered Reissue] free torrent downloads included crack, serial, keygen.Lillo Thomas - Let Me Be Yours (1983) [2013, Remastered Reissue] Fast Download via Rapidshare Hotfile Fileserve Filesonic Megaupload, Lillo Thomas - Let Me Be Yours (1983) [2013, Remastered Reissue] Torrents and Emule Download or anything related.
Leave a Comment
Your Name:
E-Mail:
Add Comments:

Enter Code: