Ben Perowsky, Frank Perowsky, Sam Yahel - Bop On Pop (2002)

Download Now

Ben Perowsky, Frank Perowsky, Sam Yahel - Bop On Pop (2002)

Ben Perowsky, Frank Perowsky, Sam Yahel - Bop On Pop (2002)
EAC Rip | FLAC with CUE and log | scans | 322 mb
MP3 CBR 320kbps | RAR | 135 mb
Genre: jazz

Bop On Pop is a 2002 CD between drummer Ben Perowsky, his father Frank Perowsky, and organist Sam Yahel. The project was produced by Ben Perowsky and released by JazzKey Music.
"Bop On Pop is a trio session that explores the bebop and hard bop roots of jazz from the ‘40s and ‘50s. The chosen songs are mainly standards associated with a few of the "founding fathers": Miles Davis, Charlie Parker, Horace Silver - as well as a grateful nod to "pre-bopper" Fats Waller. Frank Perowsky plays both the tenor sax and clarinet with great fluency and confidence, sometimes approaching songs from unexpected angles and perspectives. Ben Perowsky is solid on drums, and Yahel brings out all of the colors in the organ, turning his left hand into a fourth member of the band by providing a consistent bass line. Bop On Pop is a well-executed tribute to the musicians who laid the cornerstones of the foundation of jazz today. "


Ben Perowsky, Frank Perowsky, Sam Yahel - Bop On Pop (2002)

1. Vierd Blues
2. The Jitterbug Waltz
3. Quicksilver
4. All Of You
5. My Foolish Heart
6. Star Eyes
7. Confirmation
8. Donna Lee
9. Four

Ben Perowsky, Frank Perowsky, Sam Yahel - Bop On Pop (2002)



EAC extraction logfile from 25. March 2006, 15:37 for CD
Ben Perowsky, Frank Perowsky, Sam Yahel / Bop On Pop

Used drive : LITE-ON DVDRW SOHW-1633S Adapter: 0 ID: 0
Read mode : Secure with NO C2, accurate stream, disable cache
Read offset correction : 12
Overread into Lead-In and Lead-Out : No

Used output format : Internal WAV Routines 44.100 Hz; 16 Bit; Stereo

Other options :
Fill up missing offset samples with silence : Yes
Delete leading and trailing silent blocks : No
Installed external ASPI interface

Track 1
Filename D:\FLAC\Ben Perowsky, Frank Perowsky, Sam Yahel - Bop On Pop (2002) [FLAC]\01 - Vierd Blues.wav Pre-gap length 0:00:02.00 Peak level 98.8 %
Track quality 100.0 %
Test CRC 7D4F8A3B
Copy CRC 7D4F8A3B
Copy OK

Track 2
Filename D:\FLAC\Ben Perowsky, Frank Perowsky, Sam Yahel - Bop On Pop (2002) [FLAC]\02 - The Jitterbug Waltz.wav Peak level 98.8 %
Track quality 100.0 %
Test CRC A110F942
Copy CRC A110F942
Copy OK

Track 3
Filename D:\FLAC\Ben Perowsky, Frank Perowsky, Sam Yahel - Bop On Pop (2002) [FLAC]\03 - Quicksilver.wav Peak level 98.8 %
Track quality 100.0 %
Test CRC EADB3A49
Copy CRC EADB3A49
Copy OK

Track 4
Filename D:\FLAC\Ben Perowsky, Frank Perowsky, Sam Yahel - Bop On Pop (2002) [FLAC]\04 - All Of You.wav Peak level 98.8 %
Track quality 100.0 %
Test CRC 8B07F892
Copy CRC 8B07F892
Copy OK

Track 5
Filename D:\FLAC\Ben Perowsky, Frank Perowsky, Sam Yahel - Bop On Pop (2002) [FLAC]\05 - My Foolish Heart.wav Peak level 88.0 %
Track quality 99.9 %
Test CRC 70B830D1
Copy CRC 70B830D1
Copy OK

Track 6
Filename D:\FLAC\Ben Perowsky, Frank Perowsky, Sam Yahel - Bop On Pop (2002) [FLAC]\06 - Star Eyes.wav Peak level 88.0 %
Track quality 100.0 %
Test CRC E79B1B78
Copy CRC E79B1B78
Copy OK

Track 7
Filename D:\FLAC\Ben Perowsky, Frank Perowsky, Sam Yahel - Bop On Pop (2002) [FLAC]\07 - Confirmation.wav Peak level 100.0 %
Track quality 100.0 %
Test CRC CC1F9872
Copy CRC CC1F9872
Copy OK

Track 8
Filename D:\FLAC\Ben Perowsky, Frank Perowsky, Sam Yahel - Bop On Pop (2002) [FLAC]\08 - Donna Lee.wav Peak level 98.0 %
Track quality 100.0 %
Test CRC A3D79E0C
Copy CRC A3D79E0C
Copy OK

Track 9
Filename D:\FLAC\Ben Perowsky, Frank Perowsky, Sam Yahel - Bop On Pop (2002) [FLAC]\09 - Four.wav Peak level 98.4 %
Track quality 100.0 %
Test CRC 692322F8
Copy CRC 692322F8
Copy OK

No errors occured

End of status report
DOWNLOAD LINKS
Buy Premium From My Links To Get Resumable Support & Max Speed & To Support Me


Links are Interchangeable - No Password - Single Extraction
Direct Download

Tags: Perowsky, Perowsky

Ben Perowsky, Frank Perowsky, Sam Yahel - Bop On Pop (2002) Download via Hotfile Rapidshare Fileserve Megaupload & FileSonic, Ben Perowsky, Frank Perowsky, Sam Yahel - Bop On Pop (2002) free torrent downloads included crack, serial, keygen.Ben Perowsky, Frank Perowsky, Sam Yahel - Bop On Pop (2002) Fast Download via Rapidshare Hotfile Fileserve Filesonic Megaupload, Ben Perowsky, Frank Perowsky, Sam Yahel - Bop On Pop (2002) Torrents and Emule Download or anything related.
Leave a Comment
Your Name:
E-Mail:
Add Comments:

Enter Code: