Bhagavan Das - Now (2002)

Download Now

Bhagavan Das - Now (2002)

Bhagavan Das - Now (2002)
EAC Rip | FLAC with CUE and log | scans | 427 mb
MP3 CBR 320kbps | RAR | 174 mb
Genre: world, folk, meditative, electronica, trip hop

Now is a 2002 CD by Bhagavan Das. Unlike his older material, this one combines his Buddhist messages with electronic funky and trip hop beats. The entire album was produced and arranged by Mike D. of the Beastie Boys, and features help from longtime Beastie Boys associate Mark Nishita on keyboards. This was released by Karuna/Razor & Tie.
"Kermit Michael Riggs could have lived a simple life in California. His experiences lead him to a path of spirituality, including numerous trips to India where he would meet with a man who would become his guru, Neem Karoli Baba. This would be the start of a lifelong spiritual journey for Riggs, who put aside his Western ways and became known as Bhagavan Das. Das would become an intent student of both Hinduism and Buddhism. The late 60's and early 70's would present a great awareness of spirituality and faith from India and outlying countries, some true, some not so true. Bhagavan Das was genuine, and he became a friend for a number of famous people, including artist Peter Max.
"


Bhagavan Das - Now (2002)

1. Ode To Ganesha
2. Raghupati
3. Jai Kali Ma
4. Shiva Shambho
5. Radhe Bolo
6. Hanuman Chalisa
7. Shiva Gospel
8. Sri Krishna Arati

Bhagavan Das - Now (2002)



EAC extraction logfile from 5. July 2006, 3:38 for CD
Bhagavan Das / Now

Used drive : LITE-ON DVDRW SOHW-1633S Adapter: 0 ID: 0
Read mode : Secure with NO C2, accurate stream, disable cache
Read offset correction : 12
Overread into Lead-In and Lead-Out : No

Used output format : Internal WAV Routines 44.100 Hz; 16 Bit; Stereo

Other options :
Fill up missing offset samples with silence : Yes
Delete leading and trailing silent blocks : No
Installed external ASPI interface

Track 1
Filename D:\FLAC\Bhagavan Das - Now (2002) [FLAC]\01 - Ode To Ganesha.wav Pre-gap length 0:00:02.00 Peak level 98.8 %
Track quality 100.0 %
Test CRC 9E228855
Copy CRC 9E228855
Copy OK

Track 2
Filename D:\FLAC\Bhagavan Das - Now (2002) [FLAC]\02 - Raghupati.wav Peak level 98.8 %
Track quality 99.9 %
Test CRC B67BDBB0
Copy CRC B67BDBB0
Copy OK

Track 3
Filename D:\FLAC\Bhagavan Das - Now (2002) [FLAC]\03 - Jai Kali Ma.wav Peak level 98.8 %
Track quality 100.0 %
Test CRC C2B736D1
Copy CRC C2B736D1
Copy OK

Track 4
Filename D:\FLAC\Bhagavan Das - Now (2002) [FLAC]\04 - Shiva Shambho.wav Pre-gap length 0:00:01.86 Peak level 98.8 %
Track quality 100.0 %
Test CRC 9FC479C5
Copy CRC 9FC479C5
Copy OK

Track 5
Filename D:\FLAC\Bhagavan Das - Now (2002) [FLAC]\05 - Radhe Bolo.wav Pre-gap length 0:00:01.88 Peak level 98.8 %
Track quality 100.0 %
Test CRC 4E2200EB
Copy CRC 4E2200EB
Copy OK

Track 6
Filename D:\FLAC\Bhagavan Das - Now (2002) [FLAC]\06 - Hanuman Chalisa.wav Peak level 98.8 %
Track quality 100.0 %
Test CRC 48A8492F
Copy CRC 48A8492F
Copy OK

Track 7
Filename D:\FLAC\Bhagavan Das - Now (2002) [FLAC]\07 - Shiva Gospel.wav Peak level 98.8 %
Track quality 99.9 %
Test CRC 098A29DA
Copy CRC 098A29DA
Copy OK

Track 8
Filename D:\FLAC\Bhagavan Das - Now (2002) [FLAC]\08 - Sri Krishna Arati.wav Pre-gap length 0:00:02.09 Peak level 98.8 %
Track quality 100.0 %
Test CRC F7D60E7F
Copy CRC F7D60E7F
Copy OK

No errors occured

End of status report
DOWNLOAD LINKS
Buy Premium From My Links To Get Resumable Support & Max Speed & To Support Me


Links are Interchangeable - No Password - Single Extraction
Direct Download

Tags: Bhagavan

Bhagavan Das - Now (2002) Download via Hotfile Rapidshare Fileserve Megaupload & FileSonic, Bhagavan Das - Now (2002) free torrent downloads included crack, serial, keygen.Bhagavan Das - Now (2002) Fast Download via Rapidshare Hotfile Fileserve Filesonic Megaupload, Bhagavan Das - Now (2002) Torrents and Emule Download or anything related.
Leave a Comment
Your Name:
E-Mail:
Add Comments:

Enter Code: