Jess M - Digidelica (2002)

Download Now

Jess M - Digidelica (2002)

Jess M - Digidelica (2002)
EAC Rip | FLAC (image+.cue+log) - 392 MB | MP3 CBR 320 kbps (LAME 3.93) - 158 MB | Covers - 71 MB
Genre: Tribal, Ambient | RAR 3% Rec. | Label: Shiva Space Technology (SST CD13)

"Jess M is the project of Jess Melhuish (England) and Bernd Duller (Germany). "Digidelica" takes you on a magical journey through the landscapes of the mystical sound of didgeridoo combined with flutes, tribal percussions, shamanic and north american chanting and some psychedelic guitar playing. The character of this album is more organic than electronic what makes it to an unique masterpiece in the world of Ambient and Chillout Music."

Tracklist:
01. Uruq Al Shaiba
02. Hednisphere
03. Whipstick
04. Coitus
05. Drumming Air
06. Lemon Petals
07. Cloud Stalker
08. Tarn
09. Wild Islands
10. Heavy Grain
11. Cherrytwister

Total time: 01:07:09

Exact Audio Copy V0.99 prebeta 5 from 4. May 2009

EAC extraction logfile from 12. November 2009, 23:33

Jess M / Digidelica

Used drive : Optiarc DVD RW AD-7220A Adapter: 1 ID: 2

Read mode : Secure
Utilize accurate stream : Yes
Defeat audio cache : Yes
Make use of C2 pointers : No

Read offset correction

: 6
Overread into Lead-In and Lead-Out : No
Fill up missing offset samples with silence : Yes
Delete leading and trailing silent blocks : No
Null samples used in CRC calculations : Yes
Used interface
: Installed external ASPI interface

Used output format : User Defined Encoder
Selected bitrate : 1024 kBit/s
Quality : High
Add ID3 tag : No
Command line compressor : C:\Program Files\Exact Audio Copy\Flac\flac.exe
Additional command line options : -8 -V -T "ARTIST=%a" -T "TITLE=%t" -T "ALBUM=%g" -T "DATE=%y" -T "TRACKNUMBER=%n" -T "GENRE=%m" -T "COMMENT=%e" %s -o %d

TOC of the extracted CD Track | Start | Length | Start sector | End sector
--1 | 0:00.00 | 6:29.58 | 0 | 29232 2 | 6:29.58 | 6:36.35 | 29233 | 58967 3 | 13:06.18 | 2:39.64 | 58968 | 70956 4 | 15:46.07 | 7:13.33 | 70957 | 103464 5 | 22:59.40 | 3:42.06 | 103465 | 120120 6 | 26:41.46 | 5:48.23 | 120121 | 146243 7 | 32:29.69 | 5:37.26 | 146244 | 171544 8 | 38:07.20 | 5:32.04 | 171545 | 196448 9 | 43:39.24 | 10:43.12 | 196449 | 244685
10 | 54:22.36 | 6:26.74 | 244686 | 273709
11 | 60:49.35 | 6:19.40 | 273710 | 302174

Range status and errors

Selected range Filename Y:\_EAC_New\Jess M - Digidelica.wav Peak level 100.0 %
Range quality 100.0 %
Test CRC 3D5549CB
Copy CRC 3D5549CB
Copy OK

No errors occurred


AccurateRip summary

Track 1 not present in database
Track 2 not present in database
Track 3 not present in database
Track 4 not present in database
Track 5 not present in database
Track 6 not present in database
Track 7 not present in database
Track 8 not present in database
Track 9 not present in database
Track 10 not present in database
Track 11 not present in database

None of the tracks are present in the AccurateRip database

End of status report

[CUETools log; Date: 28.09.2015 15:40:17; Version: 2.1.4]
[CTDB TOCID: olmua6IMsT9GuhDjQzLD4DYrlio-] disk not present in database.
[AccurateRip ID: 001a3531-00e4f5c9-a00fbd0b] found.
Track [ CRC | V2 ] Status
01 [91516e2b|ac4552ff] (2+0/2) Accurately ripped
02 [6ffa2c13|94545686] (2+0/2) Accurately ripped
03 [79ed9af1|30384642] (2+0/2) Accurately ripped
04 994eb1d|bcc8e615 (2+0/2) Accurately ripped
05 [5b16bb45|06638da3] (2+0/2) Accurately ripped
06 [5278df15|ab12dbe2] (2+0/2) Accurately ripped
07 [de8d06b1|5867354d] (2+0/2) Accurately ripped
08 [d54a4b03|97491a3e] (2+0/2) Accurately ripped
09 [10fe2e00|76f0ed3c] (2+0/2) Accurately ripped
10 [c6b9ad33|0e5530cf] (2+0/2) Accurately ripped
11 [a51ce49b|c7b90428] (2+0/2) Accurately ripped

Track Peak [ CRC32 ] [W/O NULL] [ LOG ]
-- 100,0 [3D5549CB] [5456A93B] CRC32
01 99,9 [4CF115D7] [9F3B8566]
02 99,9 [ED1457BB] [32C135E7]
03 100,0 [DD2B2B0D] [EED396F7]
04 99,9 [94C4A4AE] AA0E836
05 99,9 [4EEADE13] [C52AD2CD]
06 98,9 [6BC2EBE0] [61957B54]
07 100,0 [A3BE0646] [A559C454]
08 97,9 31FFAB2 [C5DACBF6]
09 100,0 [42B056AF] [009CBD70]
10 98,7 [FA8A05F4] [D24D81EA]
11 100,0 [C5AF6F74] [CBCCD46A]

Thanks to EPSmuz
DOWNLOAD LINKS:
Buy Premium To Support Me & Get Resumable Support & Max Speed


Links are Interchangeable - No Password - Single Extraction
Direct Download

Tags: Digidelica

Jess M - Digidelica (2002) Download via Hotfile Rapidshare Fileserve Megaupload & FileSonic, Jess M - Digidelica (2002) free torrent downloads included crack, serial, keygen.Jess M - Digidelica (2002) Fast Download via Rapidshare Hotfile Fileserve Filesonic Megaupload, Jess M - Digidelica (2002) Torrents and Emule Download or anything related.
Leave a Comment
Your Name:
E-Mail:
Add Comments:

Enter Code: