VA - Japan: Kabuki & Jiuta-Mai Music (1994)

Download Now

VA - Japan: Kabuki & Jiuta-Mai Music (1994)

VA - Japon: Musique du Kabuki et du Jiuta-Mai (1994)
EAC | FLAC | Tracks (Cue&Log) ~ 325 Mb (incl 5%) | Mp3 (CBR320) ~ 183 Mb (incl 5%) | Scans included
Genre: World, Japanese Traditions, Kabuki | Label: Auvidis | # B 6809 | Time: 01:01:35

"Kabuki is one of Japan's typical theater genres, and it is still very popular today. It was created in the 17th century by a woman. As its popularity grew, it quickly became an entirely male art. Music plays a vital role in Kabuki. It sets the time and place of event; it expressed the actors' sentiments, for example. There are two types of plays in Kabuki: epic plays which recount the feats and deeds of the samurai class, and a more popular repertoire recounting the lives of the peasant and merchant classes. As for the Jiuta-Mai, it is the classical chamber music style of Japan. Before the 17th century, the voice was predominant, but afterward, in particular during the Edo period, the instrumental part became longer, taking a place thus far occupied by the voice. The Jiuta ensemble, also called Sankyoku (meaning "three instruments"), is composed of the shamisen, the koto, and the shakuhachi. This high-quality CD offers three excerpts from different Kabuki plays (of three different styles) and two works from the Jiuta-Mai repertoire. All these pieces are more than 200 hundred years old."

VA - Japan: Kabuki & Jiuta-Mai Music (1994)

Tracklist:

Kabuki Music

01. Mitsu men komori (11:46)
02. Masakado (21:07)
03. Yuzuki (05:02)

Jiuta-Mai Music

04. Kosunoto (08:22)
05. Tamatori (15:16)


Exact Audio Copy V1.0 beta 3 from 29. August 2011

EAC extraction logfile from 5. August 2012, 12:08

Various Artists / Kabuki and Jiuta-Mai Music

Used drive : TSSTcorpCDDVDW SH-S222A Adapter: 1 ID: 0

Read mode : Secure
Utilize accurate stream : Yes
Defeat audio cache : Yes
Make use of C2 pointers : No

Read offset correction

: 6
Overread into Lead-In and Lead-Out : No
Fill up missing offset samples with silence : Yes
Delete leading and trailing silent blocks : No
Null samples used in CRC calculations : Yes
Used interface
: Native Win32 interface for Win NT & 2000
Gap handling
: Appended to previous track

Used output format : User Defined Encoder
Selected bitrate : 1024 kBit/s
Quality : High
Add ID3 tag : No
Command line compressor : C:\Tool\CD\EAC10\FLAC\FLAC.EXE
Additional command line options : -8 -V -T "ARTIST=%artist%" -T "TITLE=%title%" -T "ALBUM=%albumtitle%" -T "DATE=%year%" -T "TRACKNUMBER=%tracknr%" -T "GENRE=%genre%" -T "PERFORMER=%albuminterpret%" -T "COMPOSER=%composer%" %haslyrics%--tag-from-file=LYRICS="%lyricsfile%"%haslyrics% -T "ALBUMARTIST=%albumartist%" -T "ALBUM ARTIST=%albumartist%" -T "DISCNUMBER=%cdnumber%" -T "TOTALDISCS=%totalcds%" -T "TOTALTRACKS=%numtracks%" -T "COMMENT=EAC V1.0 beta 3, Secure Mode, Test & Copy, AccurateRip, FLAC -8" %source% -o %dest%

TOC of the extracted CD Track | Start | Length | Start sector | End sector
--1 | 0:00.32 | 11:48.33 | 32 | 53164 2 | 11:48.65 | 21:09.40 | 53165 | 148379 3 | 32:58.30 | 5:04.55 | 148380 | 171234 4 | 38:03.10 | 8:25.10 | 171235 | 209119 5 | 46:28.20 | 15:16.35 | 209120 | 277854

Track 1 Filename C:\! UPLOAD\Various Artists - Kabuki and Jiuta-Mai Music (1994) [FLAC] {Auvidis}\01 - Mitsu men komori.wav Pre-gap length 0:00:02.42 Peak level 77.0 %
Extraction speed 3.8 X
Track quality 100.0 %
Test CRC 29C663C5
Copy CRC 29C663C5
Track not present in AccurateRip database
Copy OK

Track 2 Filename C:\! UPLOAD\Various Artists - Kabuki and Jiuta-Mai Music (1994) [FLAC] {Auvidis}\02 - Masakado.wav Pre-gap length 0:00:02.33 Peak level 87.1 %
Extraction speed 3.8 X
Track quality 99.9 %
Test CRC E22E70F7
Copy CRC E22E70F7
Track not present in AccurateRip database
Copy OK

Track 3 Filename C:\! UPLOAD\Various Artists - Kabuki and Jiuta-Mai Music (1994) [FLAC] {Auvidis}\03 - Yuzuki.wav Pre-gap length 0:00:02.04 Peak level 72.3 %
Extraction speed 3.6 X
Track quality 100.0 %
Test CRC 8A78669F
Copy CRC 8A78669F
Track not present in AccurateRip database
Copy OK

Track 4 Filename C:\! UPLOAD\Various Artists - Kabuki and Jiuta-Mai Music (1994) [FLAC] {Auvidis}\04 - Kosunoto.wav Pre-gap length 0:00:02.30 Peak level 52.1 %
Extraction speed 3.7 X
Track quality 100.0 %
Test CRC 02DAFB97
Copy CRC 02DAFB97
Track not present in AccurateRip database
Copy OK

Track 5 Filename C:\! UPLOAD\Various Artists - Kabuki and Jiuta-Mai Music (1994) [FLAC] {Auvidis}\05 - Tamatori.wav Pre-gap length 0:00:02.30 Peak level 52.1 %
Extraction speed 3.8 X
Track quality 100.0 %
Test CRC 1E46937F
Copy CRC 1E46937F
Track not present in AccurateRip database
Copy OK

None of the tracks are present in the AccurateRip database

No errors occurred

End of status report

==== Log checksum 9446A4113ECF8304E54D600C102024C39E31AE6E63C324A869C75A56A9C51A2E ====

foobar2000 1.2 / Dynamic Range Meter 1.1.1
log date: 2015-09-28 23:17:09

Analyzed: Various Artists / Kabuki and Jiuta-Mai Music

DR Peak RMS Duration Track

DR16 -2.27 dB -24.74 dB 11:48 01-Mitsu men komori
DR19 -1.20 dB -24.56 dB 21:10 02-Masakado
DR15 -2.81 dB -22.36 dB 5:05 03-Yuzuki
DR18 -5.65 dB -27.47 dB 8:25 04-Kosunoto
DR16 -5.65 dB -26.01 dB 15:16 05-Tamatori

Number of tracks: 5
Official DR value: DR17

Samplerate: 44100 Hz
Channels: 2
Bits per sample: 16
Bitrate: 614 kbps
Codec: FLAC

VA - Japan: Kabuki & Jiuta-Mai Music (1994)

VA - Japan: Kabuki & Jiuta-Mai Music (1994)

All thanks to original releaser - szakall
Password: designol

DOWNLOAD LINKS
Buy Premium From My Links To Get Resumable Support & Max Speed & To Support Me


Links are Interchangeable - No Password - Single Extraction
Direct Download

Tags: Kabuki

VA - Japan: Kabuki & Jiuta-Mai Music (1994) Download via Hotfile Rapidshare Fileserve Megaupload & FileSonic, VA - Japan: Kabuki & Jiuta-Mai Music (1994) free torrent downloads included crack, serial, keygen.VA - Japan: Kabuki & Jiuta-Mai Music (1994) Fast Download via Rapidshare Hotfile Fileserve Filesonic Megaupload, VA - Japan: Kabuki & Jiuta-Mai Music (1994) Torrents and Emule Download or anything related.
Leave a Comment
Your Name:
E-Mail:
Add Comments:

Enter Code: