Walter Becker and Donald Fagen (Steely Dan) - Android Warehouse (1998) 2CD

Download Now

Walter Becker and Donald Fagen (Steely Dan) - Android Warehouse (1998) 2CD

Walter Becker and Donald Fagen (Steely Dan) - Android Warehouse (1998) 2CD
EAC | FLAC | Image (Cue&Log) ~ 503 Mb (incl 5%) | Mp3 (CBR320) ~ 242 Mb (incl 5%) | Scans included
Genre: Rock, Jazz Rock, Soft Rock | Label: Age Of Panik | # AOP65 | Time: 01:25:45

"For about the thousandth time, these very early recordings by Walter Becker and Donald Fagen that have remained officially unreleased for a reason: they're terrible and only vaguely resemble the actual Steely Dan that came years later. This is not to say that there is no merit to them, only very little, and only for those who are so obsessed by the Steely Dan legend they need to hear every bent note, of which there are plenty here. This is another shabby Dressed to Kill effort that should be avoided. Period."



Tracklist:

CD1:

01. You Go Where I Go (02:00)
02. A Little With Sugar (03:27)
03. Roaring Of The Lamb (03:00)
04. Charlie Freak (02:34)
05. Sun Mountain (02:48)
06. Oh Wow It's You (02:34)
07. Undecided (02:58)
08. Caves Of Altimira (03:13)
09. Any World That I'm Welcome To (03:36)
10. More To Come (02:49)
11. Parker's Band (02:10)
12. Barrytown (02:40)
13. Brain Tap Shuffle (02:54)
14. Brooklyn (05:32)

CD2:

01. Mock Turtle Song (03:23)
02. Yellow Peril (03:57)
03. Android Warehouse (02:09)
04. A Horse In Town (02:49)
05. Ida Lee (03:33)
06. Stone Piano (02:14)
07. Take It Out On Me (02:22)
08. This Seat's Been Taken (02:38)
09. Come Back Baby (04:01)
10. Don't Let Me In (04:05)
11. Old Regime (03:07)
12. Soul Ram (02:03)
13. I Can't Function (03:56)
14. Let George Do It (03:00)


Exact Audio Copy V0.99 prebeta 5 from 4. May 2009

EAC extraction logfile from 5. December 2009, 15:49

Walter Becker and Donald Fagen / Android Warehouse.CD1

Used drive : HL-DT-STDVD-RAM GSA-H55N Adapter: 0 ID: 2

Read mode : Secure
Utilize accurate stream : Yes
Defeat audio cache : Yes
Make use of C2 pointers : No

Read offset correction

: 102
Overread into Lead-In and Lead-Out : Yes
Fill up missing offset samples with silence : Yes
Delete leading and trailing silent blocks : No
Null samples used in CRC calculations : Yes
Used interface
: Installed external ASPI interface
Gap handling
: Appended to previous track

Used output format : User Defined Encoder
Selected bitrate : 128 kBit/s
Quality : High
Add ID3 tag : No
Command line compressor : G:\Program Files\Exact Audio Copy\Encoder\flac.exe
Additional command line options : -V -8 -T "Genre=%m" -T "Artist=%a" -T "Title=%t" -T "Album=%g" -T "Year=%y" -T "Tracknumber=%n" -T "Comment=EACpb5 -8" %s

TOC of the extracted CD Track | Start | Length | Start sector | End sector
--1 | 0:00.00 | 2:00.70 | 0 | 9069 2 | 2:00.70 | 3:27.05 | 9070 | 24599 3 | 5:28.00 | 3:00.18 | 24600 | 38117 4 | 8:28.18 | 2:34.54 | 38118 | 49721 5 | 11:02.72 | 2:48.03 | 49722 | 62324 6 | 13:51.00 | 2:34.11 | 62325 | 73885 7 | 16:25.11 | 2:58.66 | 73886 | 87301 8 | 19:24.02 | 3:13.42 | 87302 | 101818 9 | 22:37.44 | 3:36.51 | 101819 | 118069
10 | 26:14.20 | 2:49.06 | 118070 | 130750
11 | 29:03.26 | 2:10.48 | 130751 | 140548
12 | 31:13.74 | 2:40.34 | 140549 | 152582
13 | 33:54.33 | 2:54.23 | 152583 | 165655
14 | 36:48.56 | 5:32.56 | 165656 | 190611

Track 1 Filename F:\WAV\01 - You Go Where I Go.wav Pre-gap length 0:00:02.00 Peak level 99.9 %
Track quality 100.0 %
Test CRC 7DD0F8F9
Copy CRC 7DD0F8F9
Cannot be verified as accurate (confidence 5) [81D118FC], AccurateRip returned [D7881984]
Copy OK

Track 2 Filename F:\WAV\02 - A Little With Sugar.wav Pre-gap length 0:00:00.45 Peak level 89.1 %
Track quality 100.0 %
Test CRC 6C082E60
Copy CRC 6C082E60
Cannot be verified as accurate (confidence 5) [2E44D55F], AccurateRip returned [F8AAB767]
Copy OK

Track 3 Filename F:\WAV\03 - Roaring Of The Lamb.wav Pre-gap length 0:00:00.45 Peak level 97.8 %
Track quality 100.0 %
Test CRC E5D5C7BA
Copy CRC E5D5C7BA
Cannot be verified as accurate (confidence 5) [53DA7A6D], AccurateRip returned 6918C01
Copy OK

Track 4 Filename F:\WAV\04 - Charlie Freak.wav Peak level 86.6 %
Track quality 99.9 %
Test CRC F1BB97EE
Copy CRC F1BB97EE
Cannot be verified as accurate (confidence 5) [AFC395B3], AccurateRip returned [A10C0BCF]
Copy OK

Track 5 Filename F:\WAV\05 - Sun Mountain.wav Pre-gap length 0:00:00.45 Peak level 100.0 %
Track quality 100.0 %
Test CRC E298B423
Copy CRC E298B423
Cannot be verified as accurate (confidence 5) [0FFAB0EF], AccurateRip returned [44C9CA47]
Copy OK

Track 6 Filename F:\WAV\06 - Oh Wow It's You.wav Pre-gap length 0:00:00.45 Peak level 99.1 %
Track quality 100.0 %
Test CRC 74923D46
Copy CRC 74923D46
Cannot be verified as accurate (confidence 5) [C552DA17], AccurateRip returned [DF3375F7]
Copy OK

Track 7 Filename F:\WAV\07 - Undecided.wav Pre-gap length 0:00:00.45 Peak level 100.0 %
Track quality 100.0 %
Test CRC 86C8B14C
Copy CRC 86C8B14C
Cannot be verified as accurate (confidence 5) [64C78AC0], AccurateRip returned 68DA2B8
Copy OK

Track 8 Filename F:\WAV\08 - Caves Of Altimira.wav Pre-gap length 0:00:00.45 Peak level 80.0 %
Track quality 100.0 %
Test CRC 7709C175
Copy CRC 7709C175
Cannot be verified as accurate (confidence 5) [D641343D], AccurateRip returned [81D515B5]
Copy OK

Track 9 Filename F:\WAV\09 - Any World That I'm Welcome To.wav Pre-gap length 0:00:00.44 Peak level 88.8 %
Track quality 100.0 %
Test CRC B7993A1D
Copy CRC B7993A1D
Cannot be verified as accurate (confidence 4) [56F2E232], AccurateRip returned [A6F486DA]
Copy OK

Track 10 Filename F:\WAV\10 - More To Come.wav Pre-gap length 0:00:00.44 Peak level 99.5 %
Track quality 100.0 %
Test CRC 5095BAB1
Copy CRC 5095BAB1
Cannot be verified as accurate (confidence 5) [E2B55A1D], AccurateRip returned [7B5F4B4D]
Copy OK

Track 11 Filename F:\WAV\11 - Parker's Band.wav Pre-gap length 0:00:00.45 Peak level 92.4 %
Track quality 100.0 %
Test CRC 0C2501F9
Copy CRC 0C2501F9
Cannot be verified as accurate (confidence 5) [2AC1BD03], AccurateRip returned [DD58A7BB]
Copy OK

Track 12 Filename F:\WAV\12 - Barrytown.wav Pre-gap length 0:00:00.45 Peak level 81.9 %
Track quality 100.0 %
Test CRC 1831C3CC
Copy CRC 1831C3CC
Cannot be verified as accurate (confidence 5) [A581E28F], AccurateRip returned [8BC898D7]
Copy OK

Track 13 Filename F:\WAV\13 - Brain Tap Shuffle.wav Pre-gap length 0:00:00.45 Peak level 96.6 %
Track quality 100.0 %
Test CRC D5D880C1
Copy CRC D5D880C1
Cannot be verified as accurate (confidence 5) [1C2BF5D6], AccurateRip returned [DAB18556]
Copy OK

Track 14 Filename F:\WAV\14 - Brooklyn.wav Pre-gap length 0:00:00.45 Peak level 89.0 %
Track quality 99.9 %
Test CRC 9A64B4AC
Copy CRC 9A64B4AC
Cannot be verified as accurate (confidence 3) [1C383F44], AccurateRip returned 5627ABE
Copy OK

No tracks could be verified as accurate
You may have a different pressing from the one(s) in the database

No errors occurred

End of status report

[CUETools log; Date: 29.09.2015 18:54:53; Version: 2.1.4]
[CTDB TOCID: y0EwqH7PcvMhzOxY7cnrrQBCuSU-] found.
Track | CTDB Status
1 | (13/14) Accurately ripped
2 | (13/14) Accurately ripped
3 | (13/14) Accurately ripped
4 | (13/14) Accurately ripped
5 | (13/14) Accurately ripped
6 | (13/14) Accurately ripped
7 | (12/14) Accurately ripped, or (1/14) differs in 12 samples @00:41:42
8 | (13/14) Accurately ripped
9 | (12/14) Accurately ripped, or (1/14) differs in 12 samples @00:19:41
10 | (13/14) Accurately ripped
11 | (13/14) Accurately ripped
12 | (13/14) Accurately ripped
13 | (13/14) Accurately ripped
14 | (13/14) Accurately ripped
[AccurateRip ID: 00148627-00dcbd96-b209ed0e] found.
Track [ CRC | V2 ] Status
01 [81d118fc|d1582e45] (08+04/30) Accurately ripped
02 [2e44d55f|26b12abb] (08+04/30) Accurately ripped
03 [53da7a6d|5af68986] (08+04/30) Accurately ripped
04 [afc395b3|cdf88ca8] (08+04/30) Accurately ripped
05 [0ffab0ef|843a8f5e] (08+04/30) Accurately ripped
06 [c552da17|dc64bd89] (08+04/30) Accurately ripped
07 [64c78ac0|b232f6f3] (06+04/28) Accurately ripped
08 [d641343d|4a18c9ff] (08+04/29) Accurately ripped
09 [56f2e232|670271eb] (07+04/28) Accurately ripped
10 [e2b55a1d|67e5eabd] (08+04/30) Accurately ripped
11 [2ac1bd03|17be2f91] (08+04/30) Accurately ripped
12 [a581e28f|f2e2de61] (08+04/30) Accurately ripped
13 [1c2bf5d6|5c7938af] (08+04/30) Accurately ripped
14 [1c383f44|9dde2c22] (08+04/28) Accurately ripped
Offsetted by 664:
01 [d7881984] (11/30) Accurately ripped
02 [f8aab767] (11/30) Accurately ripped
03 6918c01 (11/30) Accurately ripped
04 [a10c0bcf] (11/30) Accurately ripped
05 [44c9ca47] (11/30) Accurately ripped
06 [df3375f7] (11/30) Accurately ripped
07 68da2b8 (11/28) Accurately ripped
08 [81d515b5] (10/29) Accurately ripped
09 [a6f486da] (10/28) Accurately ripped
10 [7b5f4b4d] (11/30) Accurately ripped
11 [dd58a7bb] (11/30) Accurately ripped
12 [8bc898d7] (11/30) Accurately ripped
13 [dab18556] (11/30) Accurately ripped
14 5627abe (09/28) Accurately ripped

Track Peak [ CRC32 ] [W/O NULL] [ LOG ]
-- 100,0 [0D507654] [09463B9E]
01 99,9 [7DD0F8F9] [041EF94D] CRC32
02 89,1 [6C082E60] [88AED123] CRC32
03 97,8 [E5D5C7BA] [4E40E68E] CRC32
04 86,6 [F1BB97EE] [FB650898] CRC32
05 100,0 [E298B423] A4AB310 CRC32
06 99,1 [74923D46] [FAB0E8B6] CRC32
07 100,0 [86C8B14C] [2FB8B783] CRC32
08 80,0 [7709C175] [5FD265EE] CRC32
09 88,8 7993A1D [EC34692C] CRC32
10 99,5 [5095BAB1] [1823B9B7] CRC32
11 92,4 [0C2501F9] [6FACBDA1] CRC32
12 81,9 [1831C3CC] 739DB1F CRC32
13 96,6 [D5D880C1] [C9ED8391] CRC32
14 89,0 [9A64B4AC] [FA941BCC] CRC32

foobar2000 1.2 / Dynamic Range Meter 1.1.1
log date: 2015-09-29 18:53:46

Analyzed: Walter Becker and Donald Fagen / Android Warehouse.CD1

DR Peak RMS Duration Track

DR13 0.00 dB -14.66 dB 2:01 01-You Go Where I Go
DR10 -1.00 dB -13.50 dB 3:27 02-A Little With Sugar
DR10 -0.19 dB -13.13 dB 3:00 03-Roaring Of The Lamb
DR10 -1.24 dB -12.90 dB 2:35 04-Charlie Freak
DR13 0.00 dB -14.91 dB 2:48 05-Sun Mountain
DR10 -0.08 dB -11.82 dB 2:34 06-Oh Wow It's You
DR10 0.00 dB -11.34 dB 2:59 07-Undecided
DR12 -1.93 dB -16.99 dB 3:14 08-Caves Of Altimira
DR12 -1.03 dB -15.23 dB 3:37 09-Any World That I'm Welcome To
DR10 -0.04 dB -11.87 dB 2:49 10-More To Come
DR10 -0.68 dB -12.72 dB 2:11 11-Parker's Band
DR11 -1.73 dB -16.51 dB 2:40 12-Barrytown
DR10 -0.30 dB -13.18 dB 2:54 13-Brain Tap Shuffle
DR11 -1.00 dB -14.85 dB 5:33 14-Brooklyn

Number of tracks: 14
Official DR value: DR11

Samplerate: 44100 Hz
Channels: 2
Bits per sample: 16
Bitrate: 788 kbps
Codec: FLAC

Exact Audio Copy V0.99 prebeta 5 from 4. May 2009

EAC extraction logfile from 3. December 2009, 21:50

Walter Becker and Donald Fagen / Android Warehouse.CD2

Used drive : HL-DT-STDVD-RAM GSA-H55N Adapter: 0 ID: 2

Read mode : Secure
Utilize accurate stream : Yes
Defeat audio cache : Yes
Make use of C2 pointers : No

Read offset correction

: 102
Overread into Lead-In and Lead-Out : Yes
Fill up missing offset samples with silence : Yes
Delete leading and trailing silent blocks : No
Null samples used in CRC calculations : Yes
Used interface
: Installed external ASPI interface
Gap handling
: Appended to previous track

Used output format : User Defined Encoder
Selected bitrate : 128 kBit/s
Quality : High
Add ID3 tag : No
Command line compressor : G:\Program Files\Exact Audio Copy\Encoder\flac.exe
Additional command line options : -V -8 -T "Genre=%m" -T "Artist=%a" -T "Title=%t" -T "Album=%g" -T "Year=%y" -T "Tracknumber=%n" -T "Comment=EACpb5 -8" %s

TOC of the extracted CD Track | Start | Length | Start sector | End sector
--1 | 0:00.00 | 3:23.28 | 0 | 15252 2 | 3:23.28 | 3:57.11 | 15253 | 33038 3 | 7:20.39 | 2:09.46 | 33039 | 42759 4 | 9:30.10 | 2:49.34 | 42760 | 55468 5 | 12:19.44 | 3:33.03 | 55469 | 71446 6 | 15:52.47 | 2:14.01 | 71447 | 81497 7 | 18:06.48 | 2:22.37 | 81498 | 92184 8 | 20:29.10 | 2:38.59 | 92185 | 104093 9 | 23:07.69 | 4:01.74 | 104094 | 122242
10 | 27:09.68 | 4:05.60 | 122243 | 140677
11 | 31:15.53 | 3:07.60 | 140678 | 154762
12 | 34:23.38 | 2:03.51 | 154763 | 164038
13 | 36:27.14 | 3:56.17 | 164039 | 181755
14 | 40:23.31 | 3:00.34 | 181756 | 195289

Track 1 Filename F:\WAV\01 - Mock Turtle Song.wav Pre-gap length 0:00:02.00 Peak level 96.4 %
Track quality 100.0 %
Test CRC DA8C233C
Copy CRC DA8C233C
Cannot be verified as accurate (confidence 5) [DD785313], AccurateRip returned [5AB8AD7B]
Copy OK

Track 2 Filename F:\WAV\02 - Yellow Peril.wav Pre-gap length 0:00:00.45 Peak level 100.0 %
Track quality 100.0 %
Test CRC A7C1B4CD
Copy CRC A7C1B4CD
Cannot be verified as accurate (confidence 5) [79D2B0A3], AccurateRip returned [D3B6A57B]
Copy OK

Track 3 Filename F:\WAV\03 - Android Warehouse.wav Pre-gap length 0:00:00.45 Peak level 99.3 %
Track quality 100.0 %
Test CRC 67324602
Copy CRC 67324602
Cannot be verified as accurate (confidence 5) [02EBF91F], AccurateRip returned [CFA97F0F]
Copy OK

Track 4 Filename F:\WAV\04 - A Horse In Town.wav Pre-gap length 0:00:00.45 Peak level 100.0 %
Track quality 100.0 %
Test CRC 3EE3602C
Copy CRC 3EE3602C
Cannot be verified as accurate (confidence 5) [DA75A549], AccurateRip returned [6820B6C9]
Copy OK

Track 5 Filename F:\WAV\05 - Ida Lee.wav Pre-gap length 0:00:00.45 Peak level 100.0 %
Track quality 100.0 %
Test CRC CF519E71
Copy CRC CF519E71
Cannot be verified as accurate (confidence 5) AE1D376, AccurateRip returned [6A07BDFE]
Copy OK

Track 6 Filename F:\WAV\06 - Stone Piano.wav Pre-gap length 0:00:00.45 Peak level 98.9 %
Track quality 100.0 %
Test CRC AE5677F0
Copy CRC AE5677F0
Cannot be verified as accurate (confidence 5) [2281DAC5], AccurateRip returned [C28B1DBD]
Copy OK

Track 7 Filename F:\WAV\07 - Take It Out On Me.wav Pre-gap length 0:00:00.45 Peak level 81.6 %
Track quality 100.0 %
Test CRC 4A45C250
Copy CRC 4A45C250
Cannot be verified as accurate (confidence 5) [E8FFEBE0], AccurateRip returned [D0441810]
Copy OK

Track 8 Filename F:\WAV\08 - This Seat's Been Taken.wav Pre-gap length 0:00:00.45 Peak level 85.8 %
Track quality 100.0 %
Test CRC 2CBD36FD
Copy CRC 2CBD36FD
Cannot be verified as accurate (confidence 5) [8C47C157], AccurateRip returned [024B1C4F]
Copy OK

Track 9 Filename F:\WAV\09 - Come Back Baby.wav Pre-gap length 0:00:00.45 Peak level 83.8 %
Track quality 100.0 %
Test CRC 0F185FA5
Copy CRC 0F185FA5
Cannot be verified as accurate (confidence 5) [0FE0576E], AccurateRip returned C30A9CE
Copy OK

Track 10 Filename F:\WAV\10 - Don't Let Me In.wav Pre-gap length 0:00:00.45 Peak level 85.5 %
Track quality 100.0 %
Test CRC F233753F
Copy CRC F233753F
Cannot be verified as accurate (confidence 5) [7BC73992], AccurateRip returned [9EEC3B9A]
Copy OK

Track 11 Filename F:\WAV\11 - Old Regime.wav Pre-gap length 0:00:00.45 Peak level 98.8 %
Track quality 100.0 %
Test CRC 8261B428
Copy CRC 8261B428
Cannot be verified as accurate (confidence 5) [00929B27], AccurateRip returned [A2B75CF7]
Copy OK

Track 12 Filename F:\WAV\12 - Soul Ram.wav Pre-gap length 0:00:00.45 Peak level 84.5 %
Track quality 100.0 %
Test CRC 9D867E1F
Copy CRC 9D867E1F
Cannot be verified as accurate (confidence 5) [F910CB13], AccurateRip returned [D712FD43]
Copy OK

Track 13 Filename F:\WAV\13 - I Can't Function.wav Pre-gap length 0:00:00.45 Peak level 91.8 %
Track quality 100.0 %
Test CRC 5410FEB2
Copy CRC 5410FEB2
Cannot be verified as accurate (confidence 5) [4BACACD9], AccurateRip returned 59BB961
Copy OK

Track 14 Filename F:\WAV\14 - Let George Do It.wav Pre-gap length 0:00:00.45 Peak level 96.2 %
Track quality 100.0 %
Test CRC 9B3C307F
Copy CRC 9B3C307F
Cannot be verified as accurate (confidence 5) [0B94D538], AccurateRip returned [EA246300]
Copy OK

No tracks could be verified as accurate
You may have a different pressing from the one(s) in the database

No errors occurred

End of status report

[CUETools log; Date: 29.09.2015 18:55:07; Version: 2.1.4]
[CTDB TOCID: mHpPGXsZKU63KZvrR6LArF1om6M-] found.
Track | CTDB Status
1 | (11/12) Accurately ripped
2 | (11/12) Accurately ripped
3 | (11/12) Accurately ripped
4 | (11/12) Accurately ripped
5 | (11/12) Accurately ripped
6 | (11/12) Accurately ripped
7 | (11/12) Accurately ripped
8 | (11/12) Accurately ripped
9 | (11/12) Accurately ripped
10 | (11/12) Accurately ripped
11 | (11/12) Accurately ripped
12 | (11/12) Accurately ripped
13 | (11/12) Accurately ripped
14 | (11/12) Accurately ripped
[AccurateRip ID: 001631b2-00ec483c-bc0a2b0e] found.
Track [ CRC | V2 ] Status
01 [dd785313|40294a2c] (04+00/28) Accurately ripped
02 [79d2b0a3|5c1eba3a] (05+00/29) Accurately ripped
03 [02ebf91f|8f79c988] (05+00/29) Accurately ripped
04 [da75a549|cc7bb4da] (05+00/29) Accurately ripped
05 ae1d376|d57e7230 (05+00/29) Accurately ripped
06 [2281dac5|35006492] (05+00/29) Accurately ripped
07 [e8ffebe0|384cc85b] (05+00/28) Accurately ripped
08 [8c47c157|5c542239] (05+00/29) Accurately ripped
09 [0fe0576e|d60de874] (05+00/27) Accurately ripped
10 [7bc73992|9fb09c19] (05+00/29) Accurately ripped
11 [00929b27|d8275464] (05+00/29) Accurately ripped
12 [f910cb13|0092d405] (05+00/29) Accurately ripped
13 [4bacacd9|b2611ad0] (05+00/29) Accurately ripped
14 [0b94d538|80672e72] (05+00/28) Accurately ripped
Offsetted by -664:
01 [6037f8ab] (03/28) Accurately ripped
02 [1feebbcb] (03/29) Accurately ripped
03 [362e732f] (03/29) Accurately ripped
04 [4cca93c9] (03/29) Accurately ripped
05 [0bbbe8ee] (03/29) Accurately ripped
06 [827897cd] (03/29) Accurately ripped
07 [01bbbfb0] (03/28) Accurately ripped
08 [1644665f] (03/29) Accurately ripped
09 [6390050e] (03/27) Accurately ripped
10 [58a2378a] (03/29) Accurately ripped
11 [5e6dd957] (03/29) Accurately ripped
12 [1b0e98e3] (03/29) Accurately ripped
13 [e1bda051] (03/29) Accurately ripped
14 [2d054770] (03/28) Accurately ripped
Offsetted by 664:
01 [5ab8ad7b] (11/28) Accurately ripped
02 [d3b6a57b] (11/29) Accurately ripped
03 [cfa97f0f] (11/29) Accurately ripped
04 [6820b6c9] (11/29) Accurately ripped
05 [6a07bdfe] (11/29) Accurately ripped
06 [c28b1dbd] (11/29) Accurately ripped
07 [d0441810] (10/28) Accurately ripped
08 [024b1c4f] (11/29) Accurately ripped
09 c30a9ce (10/27) Accurately ripped
10 [9eec3b9a] (11/29) Accurately ripped
11 [a2b75cf7] (11/29) Accurately ripped
12 [d712fd43] (11/29) Accurately ripped
13 59bb961 (11/29) Accurately ripped
14 [ea246300] (11/28) Accurately ripped

Track Peak [ CRC32 ] [W/O NULL] [ LOG ]
-- 100,0 [1C75C947] [8519FE54]
01 96,4 [DA8C233C] [CC54A601] CRC32
02 100,0 [A7C1B4CD] [D47D7C4F] CRC32
03 99,3 [67324602] [CECD638B] CRC32
04 100,0 [3EE3602C] [2B74A157] CRC32
05 100,0 [CF519E71] [DCFB7C08] CRC32
06 98,9 [AE5677F0] [9B764CF1] CRC32
07 81,6 [4A45C250] [81AF3B38] CRC32
08 85,8 [2CBD36FD] [5FEC1EDC] CRC32
09 83,8 [0F185FA5] [6C6CFA27] CRC32
10 85,5 [F233753F] [F714EC41] CRC32
11 98,8 [8261B428] [6F118C04] CRC32
12 84,5 [9D867E1F] 38262A1 CRC32
13 91,8 [5410FEB2] [C103D201] CRC32
14 96,2 [9B3C307F] [06C0AFC1] CRC32

foobar2000 1.2 / Dynamic Range Meter 1.1.1
log date: 2015-09-29 18:53:58

Analyzed: Walter Becker and Donald Fagen / Android Warehouse.CD2

DR Peak RMS Duration Track

DR11 -0.31 dB -13.49 dB 3:23 01-Mock Turtle Song
DR11 0.00 dB -13.26 dB 3:57 02-Yellow Peril
DR10 -0.06 dB -12.35 dB 2:10 03-Android Warehouse
DR11 0.00 dB -14.02 dB 2:49 04-A Horse In Town
DR13 0.00 dB -14.75 dB 3:33 05-Ida Lee
DR9 -0.09 dB -11.33 dB 2:14 06-Stone Piano
DR12 -1.76 dB -15.95 dB 2:22 07-Take It Out On Me
DR9 -1.32 dB -12.39 dB 2:39 08-This Seat's Been Taken
DR11 -1.53 dB -14.16 dB 4:02 09-Come Back Baby
DR10 -1.36 dB -14.98 dB 4:06 10-Don't Let Me In
DR11 -0.10 dB -13.98 dB 3:08 11-Old Regime
DR10 -1.46 dB -14.14 dB 2:04 12-Soul Ram
DR12 -0.73 dB -15.00 dB 3:56 13-I Can't Function
DR10 -0.33 dB -13.68 dB 3:00 14-Let George Do It

Number of tracks: 14
Official DR value: DR11

Samplerate: 44100 Hz
Channels: 2
Bits per sample: 16
Bitrate: 772 kbps
Codec: FLAC

Walter Becker and Donald Fagen (Steely Dan) - Android Warehouse (1998) 2CD

Walter Becker and Donald Fagen (Steely Dan) - Android Warehouse (1998) 2CD

All thanks to original releaser - simple.i
Password: designol

DOWNLOAD LINKS
Buy Premium From My Links To Get Resumable Support & Max Speed & To Support Me


Links are Interchangeable - No Password - Single Extraction
Direct Download

Tags: Walter, Becker, Donald, Steely, Android, Warehouse

Walter Becker and Donald Fagen (Steely Dan) - Android Warehouse (1998) 2CD Download via Hotfile Rapidshare Fileserve Megaupload & FileSonic, Walter Becker and Donald Fagen (Steely Dan) - Android Warehouse (1998) 2CD free torrent downloads included crack, serial, keygen.Walter Becker and Donald Fagen (Steely Dan) - Android Warehouse (1998) 2CD Fast Download via Rapidshare Hotfile Fileserve Filesonic Megaupload, Walter Becker and Donald Fagen (Steely Dan) - Android Warehouse (1998) 2CD Torrents and Emule Download or anything related.
Leave a Comment
Your Name:
E-Mail:
Add Comments:

Enter Code: