U.D.O. - Navy Metal Night (2015) [BDRip 1080p]

Download Now

U.D.O. - Navy Metal Night (2015) [BDRip 1080p]

U.D.O. - Navy Metal Night (2015)
BDRip 1080p | MKV | 9381 kbps, 1920x1080 at 25.000, AVC ([email protected]) | 7.64 GB
Audio: 1509 kbps, 48 kHz, 24 bits, 6 channels, DTS | Length: 01:40:00
Genre: Heavy metal

"In February 2014, U.D.O. played a very special sold out show, accompanied by a German navy orchestra (Marinemusikkorps Nordsee). The symphonic sound of the orchestra and the choir merged with the songs of U.D.O. and made the evening a unique unforgettable"


U.D.O. - Navy Metal Night (2015) [BDRip 1080p]


Track Listing

1. Das Boot
2. Future Land
3. Independence Day
4. Animal Instinct
5. The Hall Of The Mountain King
6. Heart Of Gold
7. Man And Machine
8. Dancing With An Angel
9. Faceless World
10. Ride
11. Days Of Hope And Glory
12. Cut Me Out
13. Trainride In Russia (Poezd Po Rossii)
14. Stillness Of Time
15. King Of Mean
16. Book Of Faith
17. Animal House

General
Unique ID
: 253520376829991760495287146090118756745 (0xBEBA3F9F544AFD2AAA2E6EF21887B989)
Complete name : C:\Users\ggu\Desktop\ggu\U.D.O.Navy.Metal.Night.2015.1080p.MBluRay.x264-FKKHD\udo 1080p.mkv
Format
: Matroska
Format version : Version 4 / Version 2
File size
: 7.64 GiB
Duration
: 1h 40mn
Overall bit rate : 10.9 Mbps
Encoded date : UTC 2015-09-27 13:57:00
Writing application

: mkvmerge v7.1.0 ('Good Love') 64bit built on Jul 27 2014 13:06:55
Writing library : libebml v1.3.0 + libmatroska v1.4.1
DURATION
: 01:40:22.742000000
NUMBER_OF_FRAMES : 564632
NUMBER_OF_BYTES : 1136039584
_STATISTICS_WRITING_APP : mkvmerge v7.1.0 ('Good Love') 64bit built on Jul 27 2014 13:06:55
_STATISTICS_WRITING_DATE_UTC : 2015-09-27 13:57:00
_STATISTICS_TAGS : BPS DURATION NUMBER_OF_FRAMES NUMBER_OF_BYTES

Video
ID : 1
Format
: AVC
Format/Info
: Advanced Video Codec
Format profile : [email protected]
Format settings, CABAC : Yes
Format settings, ReFrames : 4 frames
Codec ID
: V_MPEG4/ISO/AVC
Duration
: 1h 40mn
Bit rate
: 9 381 Kbps
Width
: 1 920 pixels
Height
: 1 080 pixels
Display aspect ratio : 16:9
Frame rate mode : Constant
Frame rate
: 25.000 fps
Color space
: YUV
Chroma subsampling

: 4:2:0
Bit depth
: 8 bits
Scan type
: Progressive
Bits/(Pixel*Frame)

: 0.181
Stream size
: 6.43 GiB (84%)
Writing library : x264 core 148 r2597 e86f3a1
Encoding settings: cabac=1 / ref=4 / deblock=1:0:0 / analyse=0x3:0x113 / me=umh / subme=8 / psy=1 / psy_rd=1.00:0.00 / mixed_ref=1 / me_range=16 / chroma_me=1 / trellis=1 / 8x8dct=1 / cqm=0 / deadzone=21,11 / fast_pskip=0 / chroma_qp_offset=-2 / threads=12 / lookahead_threads=2 / sliced_threads=0 / nr=0 / decimate=1 / interlaced=0 / bluray_compat=0 / constrained_intra=0 / bframes=3 / b_pyramid=2 / b_adapt=2 / b_bias=0 / direct=3 / weightb=1 / open_gop=0 / weightp=2 / keyint=250 / keyint_min=25 / scenecut=40 / intra_refresh=0 / rc_lookahead=50 / rc=2pass / mbtree=1 / bitrate=9381 / ratetol=1.0 / qcomp=0.60 / qpmin=0 / qpmax=69 / qpstep=4 / cplxblur=20.0 / qblur=0.5 / ip_ratio=1.40 / aq=1:1.00
Language
: English
Default
: Yes
Forced
: No
DURATION
: 01:40:28.400000000
NUMBER_OF_FRAMES : 150710
NUMBER_OF_BYTES : 7069456036
_STATISTICS_WRITING_APP : mkvmerge v7.1.0 ('Good Love') 64bit built on Jul 27 2014 13:06:55
_STATISTICS_WRITING_DATE_UTC : 2015-09-27 13:57:00
_STATISTICS_TAGS : BPS DURATION NUMBER_OF_FRAMES NUMBER_OF_BYTES

Audio
ID : 2
Format
: DTS
Format/Info
: Digital Theater Systems
Mode
: 16
Format settings, Endianness : Big
Codec ID
: A_DTS
Duration
: 1h 40mn
Bit rate mode : Constant
Bit rate
: 1 509 Kbps
Channel(s)
: 6 channels
Channel positions: Front: L C R, Side: L R, LFE
Sampling rate : 48.0 KHz
Bit depth
: 24 bits
Compression mode : Lossy
Stream size
: 1.06 GiB (14%)
Language
: English
Default
: Yes
Forced
: No

Menu
00:00:00.000 : en:00:00:00.000
00:05:43.800 : en:00:05:43.800
00:12:53.000 : en:00:12:53.000
00:18:40.840 : en:00:18:40.840
00:23:16.120 : en:00:23:16.120
00:26:53.440 : en:00:26:53.440
00:32:22.840 : en:00:32:22.840
00:38:56.040 : en:00:38:56.040
00:44:05.600 : en:00:44:05.600
00:50:59.520 : en:00:50:59.520
00:55:09.840 : en:00:55:09.840
01:00:30.000 : en:01:00:30.000
01:05:49.960 : en:01:05:49.960
01:13:37.520 : en:01:13:37.520
01:20:13.400 : en:01:20:13.400
01:27:19.680 : en:01:27:19.680
01:33:46.760 : en:01:33:46.760

Thanks to the original uploader








DOWNLOAD:
Buy Premium To Support Me & Get Resumable Support & Max Speed


Links are Interchangeable - No Password
Direct Download

U.D.O. - Navy Metal Night (2015) [BDRip 1080p] Download via Hotfile Rapidshare Fileserve Megaupload & FileSonic, U.D.O. - Navy Metal Night (2015) [BDRip 1080p] free torrent downloads included crack, serial, keygen.U.D.O. - Navy Metal Night (2015) [BDRip 1080p] Fast Download via Rapidshare Hotfile Fileserve Filesonic Megaupload, U.D.O. - Navy Metal Night (2015) [BDRip 1080p] Torrents and Emule Download or anything related.
Leave a Comment
Your Name:
E-Mail:
Add Comments:

Enter Code: