Candido Camero - Candido (1956)

Download Now

Candido Camero - Candido (1956)

Candido Camero - Candido (1956)
EAC Rip | FLAC with CUE and log | scans | 139 mb
MP3 CBR 320kbps | RAR | 80 mb
Genre: jazz, Latin jazz

Candido is the 1956 album by percussionist Candido Camero. It is an exciting long playing album in sound and perhaps in sight too. Camero is joined by Al Cohn (saxophone), Dick Katz (piano), Joe Poma (guitar), Whitey Mitchell (bass), and Teddy Sommer (drums). Originally released on ABC/Paramount, this CD was released by Verve on 8 June, 2004.
Candido Camero - Candido (1956)

01. Mambo Inn
02. I'll Be Back For More
03. Stompin' At The Savoy
04. Candi Bar
05. Broadway
06. Perdido
07. Indian Summer
08. Candido's Camera
09. Poinciana
10. Cheek To Cheek

Candido Camero - Candido (1956)



EAC extraction logfile from 31. August 2006, 21:08 for CD
Candido Camero / Candido

Used drive : LITE-ON DVDRW SOHW-1633S Adapter: 0 ID: 0
Read mode : Secure with NO C2, accurate stream, disable cache
Read offset correction : 12
Overread into Lead-In and Lead-Out : No

Used output format : Internal WAV Routines 44.100 Hz; 16 Bit; Stereo

Other options :
Fill up missing offset samples with silence : Yes
Delete leading and trailing silent blocks : No
Installed external ASPI interface

Track 1
Filename D:\FLAC\Candido Camero - Candido (1956) [FLAC]\01 - Mambo Inn.wav Pre-gap length 0:00:02.00 Peak level 99.9 %
Track quality 100.0 %
Test CRC 4963B871
Copy CRC 4963B871
Copy OK

Track 2
Filename D:\FLAC\Candido Camero - Candido (1956) [FLAC]\02 - I'll Be Back For More.wav Pre-gap length 0:00:03.29 Peak level 96.6 %
Track quality 100.0 %
Test CRC 34E1E325
Copy CRC 34E1E325
Copy OK

Track 3
Filename D:\FLAC\Candido Camero - Candido (1956) [FLAC]\03 - Stompin' At The Savoy.wav Pre-gap length 0:00:03.72 Peak level 97.2 %
Track quality 100.0 %
Test CRC FABB5E78
Copy CRC FABB5E78
Copy OK

Track 4
Filename D:\FLAC\Candido Camero - Candido (1956) [FLAC]\04 - Candi Bar.wav Pre-gap length 0:00:03.76 Peak level 96.6 %
Track quality 100.0 %
Test CRC 367326DF
Copy CRC 367326DF
Copy OK

Track 5
Filename D:\FLAC\Candido Camero - Candido (1956) [FLAC]\05 - Broadway.wav Pre-gap length 0:00:03.82 Peak level 97.1 %
Track quality 100.0 %
Test CRC 4DCF96C6
Copy CRC 4DCF96C6
Copy OK

Track 6
Filename D:\FLAC\Candido Camero - Candido (1956) [FLAC]\06 - Perdido.wav Pre-gap length 0:00:03.08 Peak level 95.7 %
Track quality 100.0 %
Test CRC 253C4B44
Copy CRC 253C4B44
Copy OK

Track 7
Filename D:\FLAC\Candido Camero - Candido (1956) [FLAC]\07 - Indian Summer.wav Pre-gap length 0:00:03.66 Peak level 99.6 %
Track quality 100.0 %
Test CRC 0AA9B2FE
Copy CRC 0AA9B2FE
Copy OK

Track 8
Filename D:\FLAC\Candido Camero - Candido (1956) [FLAC]\08 - Candido's Camera.wav Pre-gap length 0:00:03.54 Peak level 94.9 %
Track quality 100.0 %
Test CRC D81D9502
Copy CRC D81D9502
Copy OK

Track 9
Filename D:\FLAC\Candido Camero - Candido (1956) [FLAC]\09 - Poinciana.wav Pre-gap length 0:00:03.48 Peak level 96.4 %
Track quality 100.0 %
Test CRC 91EB486D
Copy CRC 91EB486D
Copy OK

Track 10
Filename D:\FLAC\Candido Camero - Candido (1956) [FLAC]\10 - Cheek To Cheek.wav Pre-gap length 0:00:03.54 Peak level 95.9 %
Track quality 100.0 %
Test CRC E2112DE5
Copy CRC E2112DE5
Copy OK

No errors occured

End of status report
DOWNLOAD LINKS
Buy Premium From My Links To Get Resumable Support & Max Speed & To Support Me


Links are Interchangeable - No Password - Single Extraction
Direct Download

Tags: Candido, Camero, Candido

Candido Camero - Candido (1956) Download via Hotfile Rapidshare Fileserve Megaupload & FileSonic, Candido Camero - Candido (1956) free torrent downloads included crack, serial, keygen.Candido Camero - Candido (1956) Fast Download via Rapidshare Hotfile Fileserve Filesonic Megaupload, Candido Camero - Candido (1956) Torrents and Emule Download or anything related.
Leave a Comment
Your Name:
E-Mail:
Add Comments:

Enter Code: