Hawkwind - Anthology 1967-1982 (1998)

Download Now

Hawkwind - Anthology 1967-1982 (1998)

Hawkwind - Anthology 1967-1982 (1998)
Rock | 2cd | EAC Rip | Flac + Cue + Log | covers
Castle/Essential, ESD CD 664 | rel: 1998 | 1040Mb

Last time I checked there were over 50 Hawkwind antholgies. How long is it going to take the Guiness Book Of World Records to accord these guys some sort of honourary entry ? This is perhaps the most complete overview of the undisputed kings of space rock released by the various labels covering what are arguably their most important years from 1969 to 1982. All the best is here from that period and if what your looking for is that proverbial "if you have to have one album by this band then this is it album" then, well, this is it.
There are a few lesser known tracks, a few live tracks and a couple of rarities thrown in for posterity and it would be hard for any long time Hawkfan to deny the rationality selections made for this collection. Arranged more or less in chronological order this is a very accessible package for the uninitiated and if one is not enlightened by anything here any further excursions into the Hawkwind universe are pretty much futile. ~progarchives

Track listing
cd1:
01. Dealing With The Devil (2:13)
02. Bring It On Home (3:13)
03. Hurry On Sundown (4:49)
04. Came Home (2:12)
05. We Do It (10:31)
06. Born To Go (5:03)
07. Space Is Deep (8:31)
08. You Shouldn`t Do That (8:46)
09. Seeing It As You Really Are (1:59)
10. Earth Calling (2:10)
11. Motorhead (3:07)
12. Watchfield Festival (11:48)
13. Magnu (3:12)
14. Angels Of Death (1:11)
15. Hash Cake 77 (4:49)
16. Quark Strangeness and Charm (2:39)
~ (76:14)

cd2:
01. Douglas In The Jungle (6:53)
02. British Tribal Music (3:54)
03. High Rise (5:41)
04. Spirit Of The Age (8:00)
05. Urban Guerrilla (6:29)
06. Master Of The Universe (3:29)
07. World Of Tiers (5:19)
08. Whose Gonna Win The War (4:50)
09. Ghost Dance (5:42)
10. Silver Machine (1:07)
11. Time We Left This World Today (2:47)
12. Needle Gun (4:11)
13. Wastelands Of Sleep (4:17)
14. Out Of The Shadows (4:47)
15. Gimme Shelter (5:37)
16. Right To Decide (4:24)
~ (77:26)

Exact Audio Copy V0.99 prebeta 5 from 4. May 2009

EAC extraction logfile from 19. January 2010, 11:40

Hawkwind / Anthology 1967-1982 CD1

Used drive : TSSTcorpCDDVDW SE-S224Q Adapter: 7 ID: 0

Read mode : Secure
Utilize accurate stream : Yes
Defeat audio cache : Yes
Make use of C2 pointers : No

Read offset correction

: 6
Overread into Lead-In and Lead-Out : No
Fill up missing offset samples with silence : Yes
Delete leading and trailing silent blocks : No
Null samples used in CRC calculations : Yes
Used interface
: Native Win32 interface for Win NT & 2000
Gap handling
: Appended to previous track

Used output format : Internal WAV Routines
Sample format : 44.100 Hz; 16 Bit; Stereo

TOC of the extracted CD Track | Start | Length | Start sector | End sector
--1 | 0:00.00 | 2:13.17 | 0 | 9991 2 | 2:13.17 | 3:13.23 | 9992 | 24489 3 | 5:26.40 | 4:49.25 | 24490 | 46189 4 | 10:15.65 | 2:11.42 | 46190 | 56056 5 | 12:27.32 | 10:30.55 | 56057 | 103361 6 | 22:58.12 | 5:03.15 | 103362 | 126101 7 | 28:01.27 | 8:30.60 | 126102 | 164411 8 | 36:32.12 | 8:46.13 | 164412 | 203874 9 | 45:18.25 | 1:59.07 | 203875 | 212806
10 | 47:17.32 | 2:10.18 | 212807 | 222574
11 | 49:27.50 | 3:06.67 | 222575 | 236591
12 | 52:34.42 | 11:48.03 | 236592 | 289694
13 | 64:22.45 | 3:12.17 | 289695 | 304111
14 | 67:34.62 | 1:11.03 | 304112 | 309439
15 | 68:45.65 | 4:49.12 | 309440 | 331126
16 | 73:35.02 | 2:38.53 | 331127 | 343029

Track 1 Filename E:\# EAC Rips\## unchecked\Anthology\1\01 - Dealing With The Devil.wav Pre-gap length 0:00:02.00 Peak level 90.5 %
Track quality 100.0 %
Test CRC 5185F870
Copy CRC 5185F870
Accurately ripped (confidence 10) [31F35DBC]
Copy OK

Track 2 Filename E:\# EAC Rips\## unchecked\Anthology\1\02 - Bring It On Home.wav Pre-gap length 0:00:01.73 Peak level 95.6 %
Track quality 100.0 %
Test CRC 42BED052
Copy CRC 42BED052
Accurately ripped (confidence 10) [9C8FA026]
Copy OK

Track 3 Filename E:\# EAC Rips\## unchecked\Anthology\1\03 - Hurry On Sundown.wav Pre-gap length 0:00:01.73 Peak level 92.6 %
Track quality 100.0 %
Test CRC D85C332F
Copy CRC D85C332F
Accurately ripped (confidence 10) [D73991D3]
Copy OK

Track 4 Filename E:\# EAC Rips\## unchecked\Anthology\1\04 - Came Home.wav Pre-gap length 0:00:01.73 Peak level 96.4 %
Track quality 100.0 %
Test CRC 058938F1
Copy CRC 058938F1
Accurately ripped (confidence 10) [48BD46A4]
Copy OK

Track 5 Filename E:\# EAC Rips\## unchecked\Anthology\1\05 - We Do It.wav Pre-gap length 0:00:01.73 Peak level 81.6 %
Track quality 100.0 %
Test CRC 6D1619E0
Copy CRC 6D1619E0
Accurately ripped (confidence 10) [DFE115A9]
Copy OK

Track 6 Filename E:\# EAC Rips\## unchecked\Anthology\1\06 - Born To Go.wav Pre-gap length 0:00:01.73 Peak level 93.0 %
Track quality 100.0 %
Test CRC 82C05C66
Copy CRC 82C05C66
Accurately ripped (confidence 10) [8B6F6D9D]
Copy OK

Track 7 Filename E:\# EAC Rips\## unchecked\Anthology\1\07 - Space Is Deep.wav Pre-gap length 0:00:01.73 Peak level 97.1 %
Track quality 100.0 %
Test CRC 9AB0969B
Copy CRC 9AB0969B
Accurately ripped (confidence 9) [1A43F6A2]
Copy OK

Track 8 Filename E:\# EAC Rips\## unchecked\Anthology\1\08 - You Shouldn`t Do That.wav Peak level 96.9 %
Track quality 100.0 %
Test CRC CB63B7B4
Copy CRC CB63B7B4
Accurately ripped (confidence 10) [1DF67980]
Copy OK

Track 9 Filename E:\# EAC Rips\## unchecked\Anthology\1\09 - Seeing It As You Really Are.wav Peak level 93.6 %
Track quality 100.0 %
Test CRC C826877E
Copy CRC C826877E
Accurately ripped (confidence 10) [08E399AA]
Copy OK

Track 10 Filename E:\# EAC Rips\## unchecked\Anthology\1\10 - Earth Calling.wav Pre-gap length 0:00:01.73 Peak level 36.2 %
Track quality 100.0 %
Test CRC 83634701
Copy CRC 83634701
Accurately ripped (confidence 10) [68352AFE]
Copy OK

Track 11 Filename E:\# EAC Rips\## unchecked\Anthology\1\11 - Motorhead.wav Peak level 100.0 %
Track quality 100.0 %
Test CRC 36CF6902
Copy CRC 36CF6902
Accurately ripped (confidence 10) [A26AF14B]
Copy OK

Track 12 Filename E:\# EAC Rips\## unchecked\Anthology\1\12 - Watchfield Festival.wav Pre-gap length 0:00:01.74 Peak level 92.7 %
Track quality 100.0 %
Test CRC 9AA8ED2E
Copy CRC 9AA8ED2E
Accurately ripped (confidence 10) [962A02D4]
Copy OK

Track 13 Filename E:\# EAC Rips\## unchecked\Anthology\1\13 - Magnu.wav Pre-gap length 0:00:01.73 Peak level 95.1 %
Track quality 99.8 %
Test CRC F9360E1B
Copy CRC F9360E1B
Accurately ripped (confidence 10) [648534AF]
Copy OK

Track 14 Filename E:\# EAC Rips\## unchecked\Anthology\1\14 - Angels Of Death.wav Peak level 92.3 %
Track quality 99.8 %
Test CRC 2493B3F7
Copy CRC 2493B3F7
Accurately ripped (confidence 10) [1BCD3921]
Copy OK

Track 15 Filename E:\# EAC Rips\## unchecked\Anthology\1\15 - Hash Cake 77.wav Pre-gap length 0:00:01.73 Peak level 83.5 %
Track quality 100.0 %
Test CRC B975186E
Copy CRC B975186E
Accurately ripped (confidence 10) [DD1A9818]
Copy OK

Track 16 Filename E:\# EAC Rips\## unchecked\Anthology\1\16 - Quark Strangeness and Charm.wav Pre-gap length 0:00:01.73 Peak level 95.8 %
Track quality 100.0 %
Test CRC D1BE54D0
Copy CRC D1BE54D0
Accurately ripped (confidence 10) [AB2A26AC]
Copy OK

All tracks accurately ripped

No errors occurred

End of status report

Exact Audio Copy V0.99 prebeta 5 from 4. May 2009

EAC extraction logfile from 19. January 2010, 12:13

Hawkwind / Anthology 1967-1982 CD2

Used drive : TSSTcorpCDDVDW SE-S224Q Adapter: 7 ID: 0

Read mode : Secure
Utilize accurate stream : Yes
Defeat audio cache : Yes
Make use of C2 pointers : No

Read offset correction

: 6
Overread into Lead-In and Lead-Out : No
Fill up missing offset samples with silence : Yes
Delete leading and trailing silent blocks : No
Null samples used in CRC calculations : Yes
Used interface
: Native Win32 interface for Win NT & 2000
Gap handling
: Appended to previous track

Used output format : Internal WAV Routines
Sample format : 44.100 Hz; 16 Bit; Stereo

TOC of the extracted CD Track | Start | Length | Start sector | End sector
--1 | 0:00.00 | 6:53.22 | 0 | 30996 2 | 6:53.22 | 3:54.13 | 30997 | 48559 3 | 10:47.35 | 5:40.57 | 48560 | 74116 4 | 16:28.17 | 7:59.53 | 74117 | 110094 5 | 24:27.70 | 6:29.10 | 110095 | 139279 6 | 30:57.05 | 3:28.65 | 139280 | 154944 7 | 34:25.70 | 5:18.42 | 154945 | 178836 8 | 39:44.37 | 4:50.28 | 178837 | 200614 9 | 44:34.65 | 5:42.05 | 200615 | 226269
10 | 50:16.70 | 1:06.42 | 226270 | 231261
11 | 51:23.37 | 2:46.38 | 231262 | 243749
12 | 54:10.00 | 4:11.07 | 243750 | 262581
13 | 58:21.07 | 4:16.40 | 262582 | 281821
14 | 62:37.47 | 4:46.63 | 281822 | 303334
15 | 67:24.35 | 5:37.10 | 303335 | 328619
16 | 73:01.45 | 4:24.32 | 328620 | 348451

Track 1 Filename E:\# EAC Rips\## unchecked\Anthology\2\01 - Douglas In The Jungle.wav Pre-gap length 0:00:02.00 Peak level 82.5 %
Track quality 100.0 %
Test CRC DC41740C
Copy CRC DC41740C
Accurately ripped (confidence 9) A161FE7
Copy OK

Track 2 Filename E:\# EAC Rips\## unchecked\Anthology\2\02 - British Tribal Music.wav Pre-gap length 0:00:01.42 Peak level 96.7 %
Track quality 100.0 %
Test CRC DEE2A737
Copy CRC DEE2A737
Accurately ripped (confidence 9) [FDF8C05D]
Copy OK

Track 3 Filename E:\# EAC Rips\## unchecked\Anthology\2\03 - High Rise.wav Peak level 97.1 %
Track quality 100.0 %
Test CRC 365A5D07
Copy CRC 365A5D07
Accurately ripped (confidence 9) [738390B7]
Copy OK

Track 4 Filename E:\# EAC Rips\## unchecked\Anthology\2\04 - Spirit Of The Age.wav Pre-gap length 0:00:01.42 Peak level 93.6 %
Track quality 100.0 %
Test CRC FBEFBEE2
Copy CRC FBEFBEE2
Accurately ripped (confidence 9) [EE40CCE4]
Copy OK

Track 5 Filename E:\# EAC Rips\## unchecked\Anthology\2\05 - Urban Guerrilla.wav Peak level 93.8 %
Track quality 100.0 %
Test CRC C1918FD7
Copy CRC C1918FD7
Accurately ripped (confidence 9) [A0C1B960]
Copy OK

Track 6 Filename E:\# EAC Rips\## unchecked\Anthology\2\06 - Master Of The Universe.wav Pre-gap length 0:00:01.44 Peak level 93.3 %
Track quality 99.9 %
Test CRC 6433FCD7
Copy CRC 6433FCD7
Accurately ripped (confidence 9) 691CE28
Copy OK

Track 7 Filename E:\# EAC Rips\## unchecked\Anthology\2\07 - World Of Tiers.wav Pre-gap length 0:00:01.44 Peak level 93.5 %
Track quality 100.0 %
Test CRC A293D0C5
Copy CRC A293D0C5
Accurately ripped (confidence 9) [D07A3B58]
Copy OK

Track 8 Filename E:\# EAC Rips\## unchecked\Anthology\2\08 - Whose Gonna Win The War.wav Peak level 90.3 %
Track quality 100.0 %
Test CRC 0F4160BA
Copy CRC 0F4160BA
Accurately ripped (confidence 9) [237E6420]
Copy OK

Track 9 Filename E:\# EAC Rips\## unchecked\Anthology\2\09 - Ghost Dance.wav Pre-gap length 0:00:02.13 Peak level 91.3 %
Track quality 100.0 %
Test CRC D5E2B91E
Copy CRC D5E2B91E
Accurately ripped (confidence 8) [90E62C74]
Copy OK

Track 10 Filename E:\# EAC Rips\## unchecked\Anthology\2\10 - Silver Machine.wav Pre-gap length 0:00:04.50 Peak level 95.2 %
Track quality 100.0 %
Test CRC DC095ED6
Copy CRC DC095ED6
Accurately ripped (confidence 9) [ED69A5F0]
Copy OK

Track 11 Filename E:\# EAC Rips\## unchecked\Anthology\2\11 - Time We Left This World Today.wav Pre-gap length 0:00:01.24 Peak level 97.6 %
Track quality 100.0 %
Test CRC D16AEF97
Copy CRC D16AEF97
Accurately ripped (confidence 7) [3FA92F0D]
Copy OK

Track 12 Filename E:\# EAC Rips\## unchecked\Anthology\2\12 - Needle Gun.wav Pre-gap length 0:00:01.66 Peak level 98.8 %
Track quality 100.0 %
Test CRC F5D1AAA4
Copy CRC F5D1AAA4
Accurately ripped (confidence 8) [DD02BDE6]
Copy OK

Track 13 Filename E:\# EAC Rips\## unchecked\Anthology\2\13 - Wastelands Of Sleep.wav Peak level 90.3 %
Track quality 100.0 %
Test CRC E95738CF
Copy CRC E95738CF
Accurately ripped (confidence 9) [00E5FD47]
Copy OK

Track 14 Filename E:\# EAC Rips\## unchecked\Anthology\2\14 - Out Of The Shadows.wav Pre-gap length 0:00:01.42 Peak level 100.0 %
Track quality 100.0 %
Test CRC C20FD6D4
Copy CRC C20FD6D4
Accurately ripped (confidence 9) [D8EB5D69]
Copy OK

Track 15 Filename E:\# EAC Rips\## unchecked\Anthology\2\15 - Gimme Shelter.wav Pre-gap length 0:00:01.44 Peak level 100.0 %
Track quality 100.0 %
Test CRC D26AA40E
Copy CRC D26AA40E
Accurately ripped (confidence 9) [51254B08]
Copy OK

Track 16 Filename E:\# EAC Rips\## unchecked\Anthology\2\16 - Right To Decide.wav Pre-gap length 0:00:01.44 Peak level 94.5 %
Track quality 100.0 %
Test CRC DF7C05D5
Copy CRC DF7C05D5
Accurately ripped (confidence 9) [5CC2C79A]
Copy OK

All tracks accurately ripped

No errors occurred

End of status report

[CUETools log; Date: 2015.04.15. 16:02:18; Version: 2.1.4]
[CTDB TOCID: 6wDZ8EqcpXIiRF1mcM6JNM18obk-] found.
Track | CTDB Status
1 | (3/3) Accurately ripped
2 | (3/3) Accurately ripped
3 | (3/3) Accurately ripped
4 | (3/3) Accurately ripped
5 | (3/3) Accurately ripped
6 | (3/3) Accurately ripped
7 | (3/3) Accurately ripped
8 | (3/3) Accurately ripped
9 | (3/3) Accurately ripped
10 | (3/3) Accurately ripped
11 | (3/3) Accurately ripped
12 | (2/3) Accurately ripped
13 | (3/3) Accurately ripped
14 | (3/3) Accurately ripped
15 | (3/3) Accurately ripped
16 | (3/3) Accurately ripped
[AccurateRip ID: 002d87b2-022bc0a9-f411dd10] found.
Track [ CRC | V2 ] Status
01 [31f35dbc|6a5d11b2] (12+10/22) Accurately ripped
02 [9c8fa026|fc304701] (12+10/22) Accurately ripped
03 [d73991d3|de16afcc] (12+10/24) Accurately ripped
04 [48bd46a4|d1ba8da6] (12+10/24) Accurately ripped
05 [dfe115a9|6134b364] (12+10/24) Accurately ripped
06 [8b6f6d9d|57df62de] (12+10/22) Accurately ripped
07 [1a43f6a2|d80b8396] (11+10/21) Accurately ripped
08 [1df67980|5c9fc349] (12+10/24) Accurately ripped
09 [08e399aa|e0ed4750] (12+10/24) Accurately ripped
10 [68352afe|bd289f12] (12+10/24) Accurately ripped
11 [a26af14b|f7b6d0cb] (12+10/24) Accurately ripped
12 [962a02d4|15ed4b0a] (12+10/24) Accurately ripped
13 [648534af|aa777431] (12+10/24) Accurately ripped
14 [1bcd3921|31ee7b17] (12+10/24) Accurately ripped
15 [dd1a9818|c0c20541] (12+11/23) Accurately ripped
16 [ab2a26ac|ffc178d4] (12+10/22) Accurately ripped
Offsetted by -657:
01 63585f1 (00/22) No match
02 [819bf00b] (00/22) No match
03 [563f5177] (02/24) Accurately ripped
04 [9d9f1ef8] (02/24) Accurately ripped
05 [deddfdf5] (02/24) Accurately ripped
06 [d383306a] (00/22) No match
07 [752b4498] (00/21) No match
08 [e14ab311] (02/24) Accurately ripped
09 [57b1cb7f] (02/24) Accurately ripped
10 [83e1ad58] (02/24) Accurately ripped
11 [aad562e1] (02/24) Accurately ripped
12 [044cd19d] (02/24) Accurately ripped
13 [816df966] (02/24) Accurately ripped
14 [73b3097c] (02/24) Accurately ripped
15 [c33614eb] (00/23) No match
16 [26457fa8] (00/22) No match

Track Peak [ CRC32 ] [W/O NULL] [ LOG ]
-- 100,0 [5676B317] [0DD03ADD]
01 90,5 [5185F870] [10E36156] CRC32
02 95,6 [42BED052] [2291AFB4] CRC32
03 92,6 [D85C332F] [30899F41] CRC32
04 96,4 [058938F1] [7EC9DF5F] CRC32
05 81,6 [6D1619E0] [1DED5EC3] CRC32
06 93,0 [82C05C66] [E2362CE6] CRC32
07 97,1 [9AB0969B] [1423CFEA] CRC32
08 96,9 [CB63B7B4] [27A95DA6] CRC32
09 93,6 [C826877E] [F6267188] CRC32
10 36,2 [83634701] [E5C3FB3C] CRC32
11 100,0 [36CF6902] [990C8DB5] CRC32
12 92,7 [9AA8ED2E] [246758B5] CRC32
13 95,1 [F9360E1B] [7EF30888] CRC32
14 92,3 [2493B3F7] [8983D54A] CRC32
15 83,5 975186E [C1DF02DF] CRC32
16 95,8 [D1BE54D0] [723557F3] CRC32

[CUETools log; Date: 2015.04.15. 16:01:33; Version: 2.1.4]
[CTDB TOCID: ANA25LJmXsbZ0L2ZIQDQCzsTVk4-] found.
Track | CTDB Status
1 | (3/3) Accurately ripped
2 | (3/3) Accurately ripped
3 | (3/3) Accurately ripped
4 | (3/3) Accurately ripped
5 | (3/3) Accurately ripped
6 | (3/3) Accurately ripped
7 | (3/3) Accurately ripped
8 | (3/3) Accurately ripped
9 | (3/3) Accurately ripped
10 | (3/3) Accurately ripped
11 | (3/3) Accurately ripped
12 | (3/3) Accurately ripped
13 | (3/3) Accurately ripped
14 | (3/3) Accurately ripped
15 | (3/3) Accurately ripped
16 | (3/3) Accurately ripped
[AccurateRip ID: 00304593-023515d5-fe122610] found.
Track [ CRC | V2 ] Status
01 a161fe7|32ce3fa3 (11+10/21) Accurately ripped
02 [fdf8c05d|97d115d6] (11+10/21) Accurately ripped
03 [738390b7|4cce8364] (11+10/23) Accurately ripped
04 [ee40cce4|7d535a22] (11+10/23) Accurately ripped
05 [a0c1b960|7a44bdfb] (11+10/23) Accurately ripped
06 691ce28|44e95553 (11+10/23) Accurately ripped
07 [d07a3b58|be8bf1cc] (11+10/23) Accurately ripped
08 [237e6420|ff1aeeab] (11+10/23) Accurately ripped
09 [90e62c74|1a4313c0] (10+09/21) Accurately ripped
10 [ed69a5f0|aa109508] (11+10/21) Accurately ripped
11 [3fa92f0d|8ae2608f] (09+10/19) Accurately ripped
12 [dd02bde6|b3459e59] (10+10/20) Accurately ripped
13 [00e5fd47|96b3780c] (11+10/21) Accurately ripped
14 [d8eb5d69|facc75e7] (11+10/21) Accurately ripped
15 [51254b08|836480be] (11+10/21) Accurately ripped
16 [5cc2c79a|f814cf80] (11+10/21) Accurately ripped
Offsetted by -657:
01 [0b872865] (00/21) No match
02 [a75632d2] (00/21) No match
03 [84a8720a] (02/23) Accurately ripped
04 [e7720397] (02/23) Accurately ripped
05 [4a0d3f67] (02/23) Accurately ripped
06 [10c984f5] (02/23) Accurately ripped
07 878da8a (02/23) Accurately ripped
08 [8cff5201] (02/23) Accurately ripped
09 [8d09c5c9] (02/21) Accurately ripped
10 [9ea975e5] (00/21) No match
11 [7c48e321] (00/19) No match
12 [76e4ff5f] (00/20) No match
13 [81e655c4] (00/21) No match
14 [9c838b7b] (00/21) No match
15 [c7fc8514] (00/21) No match
16 [4a497f71] (00/21) No match

Track Peak [ CRC32 ] [W/O NULL] [ LOG ]
-- 100,0 [EEDFADF3] [89598F40]
01 82,5 [DC41740C] [92FB564C] CRC32
02 96,7 [DEE2A737] [5D97A1DC] CRC32
03 97,1 [365A5D07] [FA63AAF0] CRC32
04 93,6 [FBEFBEE2] [004FDF89] CRC32
05 93,8 [C1918FD7] [DE58525A] CRC32
06 93,3 [6433FCD7] [4D6B92D7] CRC32
07 93,5 [A293D0C5] [45309ACA] CRC32
08 90,3 [0F4160BA] [77C03BBC] CRC32
09 91,3 [D5E2B91E] [AA3DFC93] CRC32
10 95,2 [DC095ED6] C03B8D3 CRC32
11 97,6 [D16AEF97] [0F57225B] CRC32
12 98,8 [F5D1AAA4] [A35B45EA] CRC32
13 90,3 [E95738CF] [9B83AD8A] CRC32
14 100,0 [C20FD6D4] [C4029884] CRC32
15 100,0 [D26AA40E] [4A2CD96B] CRC32
16 94,5 [DF7C05D5] [A8C478DC] CRC32

original uploader unknown
password: asd
Download Links:
(Premium Recommended)


All above links are interchangable. No password
Direct Download

Tags: Hawkwind, Anthology

Hawkwind - Anthology 1967-1982 (1998) Download via Hotfile Rapidshare Fileserve Megaupload & FileSonic, Hawkwind - Anthology 1967-1982 (1998) free torrent downloads included crack, serial, keygen.Hawkwind - Anthology 1967-1982 (1998) Fast Download via Rapidshare Hotfile Fileserve Filesonic Megaupload, Hawkwind - Anthology 1967-1982 (1998) Torrents and Emule Download or anything related.
Leave a Comment
Your Name:
E-Mail:
Add Comments:

Enter Code: