Beethoven - The Piano Concertos (Rudolf Buchbinder) (2011)

Download Now

Beethoven - The Piano Concertos (Rudolf Buchbinder) (2011)

Beethoven - The Piano Concertos (Rudolf Buchbinder) (2011)
BluRay | BDMV | MPEG-4 AVC Video / 19924 kbps / 1080i / 29,970 fps | 215 min | 42,2GB
Audio1: LPCM Audio / 2.0 / 24-bit | Audio2: DTS-HD Master Audio / 5.0 / 48 kHz / 24-bit / 3619 kbps

BluRay-rip | AVC | MKV 1920x1080 (16:9) / 6215 kbps / 29,97 fps | 186 min | 10GB
Audio: DTS / 5ch / 48.0 KHz / 24 bits
Classical | C Major | Sub: English, French, Spanish, Italian, Chinese, Korean

"After decades of work on Beethovens original scores, the Austrian pianist Rudolf Buchbinder offers a definitive interpretation of all Beethovens piano concertos in this series of live recordings of his ecstatically acclaimed performances in the Musikverein Vienna from May 2011. Buchbinder conducts the Vienna Philharmonic from the keyboard and achieves a rare degree of tension and chamber-like concentration. Rudolf Buchbinder is firmly established as one of the most important pianists on the international scene, he is a regular guest of renowned orchestras such as the Berlin Philharmonic, Vienna Philharmonic, New York Philharmonic, Orchestre National de France, London Philharmonic, National Symphony, and the Philadelphia Orchestra."

Cast:
Wiener Philharmoniker
Rudolf Buchbinder, piano & conductor

Piano Concerto No. 1 in C major, Op. 15
01. Allegro con brio
02. Largo
03. Rondo. Allegro scherzando
Piano Concerto No. 2 in B flat major, Op. 19
04. Allegro con brio
05. Adagio
06. Rondo. Molto Allegro
Piano Concerto No. 3 in C minor, Op. 37
07. Allegro con brio
08. Largo
09. Rondo. Allegro
Piano Concerto No. 4 in G major, Op. 58
10. Allegro moderato
11. Andante con moto
12. Rondo. Vivace
Piano Concerto No. 5 in E flat major, Op. 73 "Emperor"
13. Allegro
14. Adagio un poco moto
15. Rondo. Allegro

Disc Title: Beethoven_The_Piano_Concertos
Disc Size: 45336493330 bytes
Protection: AACS
BD-Java: No
Playlist: 00000.MPLS
Size: 38239168512 bytes
Length: 3:06:30.579
Total Bitrate: 27,34 Mbps
Video: MPEG-4 AVC Video / 19924 kbps / 1080i / 29,970 fps / 16:9 / High Profile 4.1
Audio: Undetermined / LPCM Audio / 2.0 / 48 kHz / 2304 kbps / 24-bit
Audio: Undetermined / DTS-HD Master Audio / 5.0 / 48 kHz / 3619 kbps / 24-bit (DTS Core: 5.0 / 48 kHz / 1509 kbps / 24-bit)

General
Unique ID
: 241945790500706449363139006543977355958 (0xB6051074F0D8DD7C929E4FA78EA59AB6)
Complete name : C:\Beethoven_The_Piano_Concertos.mkv
Format
: Matroska
Format version : Version 2
File size
: 10.1 GiB
Duration
: 3h 6mn
Overall bit rate : 7 742 Kbps
Movie name
: Beethoven_The_Piano_Concertos
Encoded date : UTC 2015-09-30 11:33:58
Writing application

: DVDFab 9.1.6.8
Writing library : libebml v0.7.8 + libmatroska v0.8.1

Video
ID : 1
Format
: AVC
Format/Info
: Advanced Video Codec
Format profile : [email protected]
Format settings, CABAC : Yes
Format settings, ReFrames : 2 frames
Codec ID
: V_MPEG4/ISO/AVC
Duration
: 3h 6mn
Bit rate
: 6 215 Kbps
Width
: 1 920 pixels
Height
: 1 080 pixels
Display aspect ratio : 16:9
Frame rate mode : Constant
Frame rate
: 29.970 fps
Color space
: YUV
Chroma subsampling

: 4:2:0
Bit depth
: 8 bits
Scan type
: Progressive
Bits/(Pixel*Frame)

: 0.100
Stream size
: 7.90 GiB (79%)
Writing library : x264 core 142
Encoding settings: cabac=1 / ref=1 / deblock=1:-1:-1 / analyse=0x3:0 / me=hex / subme=5 / psy=0 / mixed_ref=0 / me_range=16 / chroma_me=1 / trellis=0 / 8x8dct=1 / cqm=0 / deadzone=21,11 / fast_pskip=1 / chroma_qp_offset=0 / threads=8 / lookahead_threads=2 / sliced_threads=0 / nr=0 / decimate=1 / interlaced=0 / bluray_compat=0 / constrained_intra=0 / bframes=2 / b_pyramid=0 / b_adapt=1 / b_bias=0 / direct=1 / weightb=1 / open_gop=0 / weightp=0 / keyint=24 / keyint_min=13 / scenecut=40 / intra_refresh=0 / rc=abr / mbtree=0 / bitrate=6215 / ratetol=1.0 / qcomp=0.60 / qpmin=0 / qpmax=69 / qpstep=4 / ip_ratio=1.40 / pb_ratio=1.30 / aq=1:1.00
Default
: Yes
Forced
: No
Color primaries : BT.709
Transfer characteristics : BT.709
Matrix coefficients

: BT.709
Color range
: Limited

Audio
ID : 2
Format
: DTS
Format/Info
: Digital Theater Systems
Mode
: 16
Format settings, Endianness : Big
Codec ID
: A_DTS
Duration
: 3h 6mn
Bit rate mode : Constant
Bit rate
: 1 509 Kbps
Channel(s)
: 5 channels
Channel positions: Front: L C R, Side: L R
Sampling rate : 48.0 KHz
Bit depth
: 24 bits
Compression mode : Lossy
Stream size
: 1.96 GiB (19%)
Default
: Yes
Forced
: No

Menu
00:00:00.000 : en:Chapter 01
00:00:59.059 : en:Chapter 02
00:17:32.951 : en:Chapter 03
00:28:01.046 : en:Chapter 04
00:37:04.021 : en:Chapter 05
00:39:14.218 : en:Chapter 06
00:40:14.278 : en:Chapter 07
00:54:39.909 : en:Chapter 08
01:02:55.538 : en:Chapter 09
01:08:55.831 : en:Chapter 10
01:11:04.927 : en:Chapter 11
01:12:02.818 : en:Chapter 12
01:29:19.454 : en:Chapter 13
01:38:26.800 : en:Chapter 14
01:47:15.929 : en:Chapter 15
01:49:14.180 : en:Chapter 16
01:50:08.368 : en:Chapter 17
02:09:30.062 : en:Chapter 18
02:14:22.120 : en:Chapter 19
02:24:21.586 : en:Chapter 20
02:25:56.748 : en:Chapter 21
02:26:56.641 : en:Chapter 22
02:47:11.688 : en:Chapter 23
02:54:17.513 : en:Chapter 24
03:04:01.897 : en:Chapter 25

All screenshots taken from Blu-ray

Beethoven - The Piano Concertos (Rudolf Buchbinder) (2011)

Beethoven - The Piano Concertos (Rudolf Buchbinder) (2011)

Beethoven - The Piano Concertos (Rudolf Buchbinder) (2011)



DOWNLOAD LINKS
Buy Premium From My Links To Get Resumable Support & Max Speed & To Support Me

Rapidgator.net:
http://rapidgator.net/file/8466ecb743beaa21eeafd3f31c08adcf/niqwz.B.T.P.C.R.B.2011.part01.rar.html
http://rapidgator.net/file/c1750e9d7cad4dcb09b2789f0495754b/niqwz.B.T.P.C.R.B.2011.part02.rar.html
http://rapidgator.net/file/f36a8d795512d044a7041548259d43fc/niqwz.B.T.P.C.R.B.2011.part03.rar.html
http://rapidgator.net/file/ca7466bca40366acac58dfd22fc2fb99/niqwz.B.T.P.C.R.B.2011.part04.rar.html
http://rapidgator.net/file/f6627c71b6c1d48af6f32fc0f3bf3197/niqwz.B.T.P.C.R.B.2011.part05.rar.html
http://rapidgator.net/file/4e096480389ad8fcd222c90c6666c2d1/niqwz.B.T.P.C.R.B.2011.part06.rar.html
http://rapidgator.net/file/53c5c775bbe9a9605b3740658f6e94d4/niqwz.B.T.P.C.R.B.2011.part07.rar.html
http://rapidgator.net/file/72af5af9d8f6e7ea9d6eebee57972328/niqwz.B.T.P.C.R.B.2011.part08.rar.html
http://rapidgator.net/file/c2e474aa57e51bd29907464228b27bfb/niqwz.B.T.P.C.R.B.2011.part09.rar.html
http://rapidgator.net/file/2a8e30abb751ddcfef9160c5090bd149/niqwz.B.T.P.C.R.B.2011.part10.rar.html
http://rapidgator.net/file/10295c810e02f1d151d573e09ba50546/niqwz.B.T.P.C.R.B.2011.part11.rar.html
http://rapidgator.net/file/a38a450e71f16dc9a95a5bf8ca9c0f46/niqwz.B.T.P.C.R.B.2011.part12.rar.html

Uploaded.net:
http://uploaded.net/file/xes73gr6/niqwz.B.T.P.C.R.B.2011.part01.rar
http://uploaded.net/file/hg2rdl5s/niqwz.B.T.P.C.R.B.2011.part02.rar
http://uploaded.net/file/irnang7l/niqwz.B.T.P.C.R.B.2011.part03.rar
http://uploaded.net/file/3vdlig3f/niqwz.B.T.P.C.R.B.2011.part04.rar
http://uploaded.net/file/7r0suv69/niqwz.B.T.P.C.R.B.2011.part05.rar
http://uploaded.net/file/muqq17vp/niqwz.B.T.P.C.R.B.2011.part06.rar
http://uploaded.net/file/7999jjjb/niqwz.B.T.P.C.R.B.2011.part07.rar
http://uploaded.net/file/xnma8fo7/niqwz.B.T.P.C.R.B.2011.part08.rar
http://uploaded.net/file/idaj9rcc/niqwz.B.T.P.C.R.B.2011.part09.rar
http://uploaded.net/file/v3e1j3g5/niqwz.B.T.P.C.R.B.2011.part10.rar
http://uploaded.net/file/kf10wwu5/niqwz.B.T.P.C.R.B.2011.part11.rar
http://uploaded.net/file/zd29fy1o/niqwz.B.T.P.C.R.B.2011.part12.rar

OBoom.com:
https://www.oboom.com/B61A9GLP/niqwz.B.T.P.C.R.B.2011.part01.rar
https://www.oboom.com/1N83JYK2/niqwz.B.T.P.C.R.B.2011.part02.rar
https://www.oboom.com/UCR9APE8/niqwz.B.T.P.C.R.B.2011.part03.rar
https://www.oboom.com/1U8JBJ9Q/niqwz.B.T.P.C.R.B.2011.part04.rar
https://www.oboom.com/U4ZNT14N/niqwz.B.T.P.C.R.B.2011.part05.rar
https://www.oboom.com/ZGYO1VAK/niqwz.B.T.P.C.R.B.2011.part06.rar
https://www.oboom.com/JQMEZD7Q/niqwz.B.T.P.C.R.B.2011.part07.rar
https://www.oboom.com/I4YOLDSG/niqwz.B.T.P.C.R.B.2011.part08.rar
https://www.oboom.com/YB1CY5K6/niqwz.B.T.P.C.R.B.2011.part09.rar
https://www.oboom.com/CZZ3CTK3/niqwz.B.T.P.C.R.B.2011.part10.rar
https://www.oboom.com/7676T69C/niqwz.B.T.P.C.R.B.2011.part11.rar
https://www.oboom.com/FTWQ2I3S/niqwz.B.T.P.C.R.B.2011.part12.rar

Links are Interchangeable - No Password - Single Extraction
Direct Download

Tags: Beethoven, Concertos, Rudolf, Buchbinder

Beethoven - The Piano Concertos (Rudolf Buchbinder) (2011) Download via Hotfile Rapidshare Fileserve Megaupload & FileSonic, Beethoven - The Piano Concertos (Rudolf Buchbinder) (2011) free torrent downloads included crack, serial, keygen.Beethoven - The Piano Concertos (Rudolf Buchbinder) (2011) Fast Download via Rapidshare Hotfile Fileserve Filesonic Megaupload, Beethoven - The Piano Concertos (Rudolf Buchbinder) (2011) Torrents and Emule Download or anything related.
Leave a Comment
Your Name:
E-Mail:
Add Comments:

Enter Code: