Anthony Gomes Band - Blues In Technicolor (1998)

Download Now

Anthony Gomes Band - Blues In Technicolor (1998)

Anthony Gomes Band - Blues In Technicolor (1998)
EAC Rip | FLAC (Img) + Cue + Log ~ 388 Mb | MP3 CBR320 ~ 127 Mb
Scans (JPG, 600 dpi) ~ 44 Mb | RAR 5% Recovery
Modern Electric Blues | Urban Electric Records #UE 1109

"Canadian-born guitarist, singer, and songwriter Anthony Gomes is a critically acclaimed chart-topping artist who plays a style of modern electric blues that incorporates elements of rock, soul, R&B, and country. Having gained attention in the Chicago area, the Anthony Gomes Band released their debut album in 1998. Blues in Technicolor has some of the hottest blues guitar work you'll ever hear. One of the strongest tracks, "Misery for Company," has a B.B. King feel to it, with powerful emotional vocals and vibrant guitar work..."


Track List:

01. Blues In Technicolor [04:10]
02. Gonna Have A Party [03:14]
03. Bad Luck Child [04:43]
04. Outta The Cathouse [04:12]
05. Misery For Company [05:58]
06. Love's Got The Power [04:18]
07. Hard Year For The Blues [03:51]
08. Wolf In My Henhouse [04:49]
09. Shame On You [03:26]
10. Brand New Day [05:38]
11. High Calorie Woman [04:31]
12. Monday Kinda Tuesday [04:18]

Exact Audio Copy V1.0 beta 3 from 29. August 2011

Отчёт EAC об извлечении, выполненном 3. мая 2015, 11:10

Anthony Gomes Band / Blues In Technicolor

Дисковод: PLEXTOR DVDR PX-880SA Adapter: 1 ID: 0

Режим чтения : Достоверность
Использование точного потока : Да
Отключение кэша аудио : Да
Использование указателей C2 : Нет

Коррекция смещения при чтении : 6
Способность читать области Lead-in и Lead-out : Нет
Заполнение пропущенных сэмплов тишиной : Да
Удаление блоков с тишиной в начале и конце : Нет
При вычислениях CRC использовались нулевые сэмплы : Да
Интерфейс : Установленный внешний ASPI-интерфейс

Выходной формат : Пользовательский кодировщик
Выбранный битрейт : 1024 kBit/s
Качество : Высокий
Добавление ID3-тега : Нет
Утилита сжатия : C:\Program Files\Exact Audio Copy\FLAC\FLAC.EXE
Дополнительные параметры : -10 -V -T "ARTIST=%artist%" -T "ALBUM=%albumtitle%" -T "DATE=%year%" -T "GENRE=%genre%" -T "COMMENT=ripped by izia1956" %source%

TOC извлечённого CD Трек | Старт | Длительность | Начальный сектор | Конечный сектор

1 | 0:00.00 | 4:09.37 | 0 | 18711
2 | 4:09.37 | 3:13.15 | 18712 | 33201
3 | 7:22.52 | 4:42.12 | 33202 | 54363
4 | 12:04.64 | 4:11.36 | 54364 | 73224
5 | 16:16.25 | 5:57.65 | 73225 | 100064
6 | 22:14.15 | 4:17.12 | 100065 | 119351
7 | 26:31.27 | 3:50.20 | 119352 | 136621
8 | 30:21.47 | 4:48.15 | 136622 | 158236
9 | 35:09.62 | 3:25.47 | 158237 | 173658
10 | 38:35.34 | 5:38.00 | 173659 | 199008
11 | 44:13.34 | 4:30.16 | 199009 | 219274
12 | 48:43.50 | 4:17.72 | 219275 | 238621

Характеристики диапазона извлечения и сообщения об ошибках

Выбранный диапазон Имя файла D:\BitComet\Anthony Gomes\1998 - Blues In Technicolor\Anthony Gomes Band - Blues In Technicolor.wav Пиковый уровень 99.4 %
Скорость извлечения 2.9 X
Качество диапазона 100.0 %
CRC теста F27EBB09
CRC копии F27EBB09
Копирование... OK

Ошибок не произошло


AccurateRip: сводка

Трек 1 точность не определена (достоверность 1) [6EE3F1D2], AccurateRip вернул [D16946C6] (AR v2)
Трек 2 точность не определена (достоверность 1) [4399CE73], AccurateRip вернул [1DF4AC00] (AR v2)
Трек 3 точность не определена (достоверность 1) [183509AF], AccurateRip вернул [CA6E8A79] (AR v2)
Трек 4 точность не определена (достоверность 1) [13DAB8B1], AccurateRip вернул [FBAE54F4] (AR v2)
Трек 5 точность не определена (достоверность 1) [1A3ED41B], AccurateRip вернул [1203828A] (AR v2)
Трек 6 точность не определена (достоверность 1) [7FFB2916], AccurateRip вернул [AFB8C304] (AR v2)
Трек 7 точность не определена (достоверность 1) [5298A700], AccurateRip вернул [12B2ACB6] (AR v2)
Трек 8 точность не определена (достоверность 1) [718172CB], AccurateRip вернул [F0437421] (AR v2)
Трек 9 точность не определена (достоверность 1) [E5BDA1BF], AccurateRip вернул 9C52739 (AR v2)
Трек 10 точность не определена (достоверность 1) [EB977F2F], AccurateRip вернул [92C6F47F] (AR v2)
Трек 11 точность не определена (достоверность 1) D17BD76, AccurateRip вернул [F298B973] (AR v2)
Трек 12 точность не определена (достоверность 1) 6BAEA74, AccurateRip вернул [0498AEF9] (AR v2)

Ни один трек не прошёл проверки на точность
В вашей базе может быть иной вариант штамповки диска

Конец отчёта

==== Контрольная сумма отчёта A12AAE63C21525EDEA722EBFDCB80D30D79D4ACEC90B7A3DE049561C8702B788 ====

foobar2000 1.2.6 / Dynamic Range Meter 1.1.1
log date: 2015-10-02 18:43:32

Analyzed: Anthony Gomes Band / Blues In Technicolor

DR Peak RMS Duration Track

DR10 -0.05 dB -10.47 dB 4:09 01-Blues In Technicolor
DR9 -0.05 dB -9.86 dB 3:13 02-Gonna Have A Party
DR10 -0.05 dB -10.90 dB 4:42 03-Bad Luck Child
DR11 -0.07 dB -12.21 dB 4:11 04-Outta The Cathouse
DR11 -0.05 dB -12.68 dB 5:58 05-Misery For Company
DR11 -0.05 dB -12.69 dB 4:17 06-Love's Got The Power
DR12 -1.43 dB -16.50 dB 3:50 07-Hard Year For The Blues
DR10 -0.21 dB -11.48 dB 4:48 08-Wolf In My Henhouse
DR11 -0.07 dB -11.69 dB 3:26 09-Shame On You
DR13 -0.36 dB -14.54 dB 5:38 10-Brand New Day
DR10 -0.05 dB -11.40 dB 4:30 11-High Calorie Woman
DR12 -2.00 dB -16.79 dB 4:18 12-Monday Kinda Tuesday

Number of tracks: 12
Official DR value: DR11

Samplerate: 44100 Hz
Channels: 2
Bits per sample: 16
Bitrate: 974 kbps
Codec: FLAC

[CUETools log; Date: 02.10.2015 18:43:25; Version: 2.1.5]
[CTDB TOCID: h5MbaA5QuYgUPLd8Yo_hXeyyY58-] found.
Track | CTDB Status
1 | (0/1) No match
2 | (0/1) No match
3 | (0/1) No match
4 | (0/1) No match
5 | (0/1) No match
6 | (0/1) No match
7 | (0/1) No match
8 | (0/1) No match
9 | (0/1) No match
10 | (0/1) No match
11 | (0/1) No match
12 | (1/1) Accurately ripped
[AccurateRip ID: 00174278-00dab2ea-a00c6d0c] found.
Track [ CRC | V2 ] Status
01 [cf7c09a1|6ee3f1d2] (0+1/2) Accurately ripped
02 [157669ce|4399ce73] (0+1/2) Accurately ripped
03 [db190308|183509af] (0+1/2) Accurately ripped
04 [120c5db5|13dab8b1] (0+1/2) Accurately ripped
05 [00b41799|1a3ed41b] (0+1/2) Accurately ripped
06 [df39bb6e|7ffb2916] (0+1/2) Accurately ripped
07 [55277a5a|5298a700] (0+1/2) Accurately ripped
08 [6c45a1df|718172cb] (0+1/2) Accurately ripped
09 [4b6b2572|e5bda1bf] (0+1/2) Accurately ripped
10 [750e82dc|eb977f2f] (0+1/2) Accurately ripped
11 [fc018207|bd17bd76] (0+1/2) Accurately ripped
12 [96a7ec13|b6baea74] (0+1/2) Accurately ripped

Track Peak [ CRC32 ] [W/O NULL] [ LOG ]
-- 99,4 [F27EBB09] D1A1B41 CRC32
01 99,4 [422781AC] [66731E10]
02 99,4 [5CF2C005] [D11D372B]
03 99,4 [1A3EC1C8] [A0E7410E]
04 99,2 [A2318181] [489E8672]
05 99,3 [712C2017] [8FCE05D3]
06 99,4 [0D88932B] [2B6C0FD1]
07 84,8 [5EA1F0A8] [CF0EF0AD]
08 97,5 [D5B59660] 6760760
09 99,2 [622D1D7C] [D786211E]
10 95,9 [EA48C43A] [0E71A91C]
11 99,4 [CD7B177D] [1357DC07]
12 79,3 [6CBA2266] [0AE27DB0]

Anthony Gomes Band - Blues In Technicolor (1998)

Anthony Gomes Band - Blues In Technicolor (1998)

DOWNLOAD LINKS
Buy Premium From My Links To Get Resumable Support & Max Speed & To Support Me


Links are Interchangeable - No Password - Single Extraction
Direct Download

Tags: Anthony, Technicolor

Anthony Gomes Band - Blues In Technicolor (1998) Download via Hotfile Rapidshare Fileserve Megaupload & FileSonic, Anthony Gomes Band - Blues In Technicolor (1998) free torrent downloads included crack, serial, keygen.Anthony Gomes Band - Blues In Technicolor (1998) Fast Download via Rapidshare Hotfile Fileserve Filesonic Megaupload, Anthony Gomes Band - Blues In Technicolor (1998) Torrents and Emule Download or anything related.
Leave a Comment
Your Name:
E-Mail:
Add Comments:

Enter Code: