Till Fellner - J.S. Bach: Das Wohltemperierte Klavier, Buch 1 (2004) 2CD

Download Now

Till Fellner - J.S. Bach: Das Wohltemperierte Klavier, Buch 1 (2004) 2CD

Till Fellner - J.S. Bach: The Well-Tempered Clavier, Book I (2004) 2CD
EAC | FLAC | Tracks (Cue&Log) ~ 344 Mb (incl 5%) | Mp3 (CBR320) ~ 321 Mb (incl 5%) | Scans included
Genre: Classical | Label: ECM | # ECM New Series 1853/54, 476 0482 | Time: 01:54:54

"Youthful Viennese pianist Till Fellner has performed J.S. Bach's Well-Tempered Clavier to critical acclaim across Europe, and has made it the backbone of his recital repertoire. For this recording of Book I, Fellner performs the 24 preludes and fugues with a rich and full sound, yet with the refinement and fastidious control required in these comprehensive studies of Baroque keyboard technique. Articulation and balanced phrasing are of paramount importance, and Fellner's energies are directed to the clean execution of lines and the careful shading of contrapuntal voicings. What emotion he communicates is subtle and somewhat constrained to the contrasting characters of each pairing -- the preludes and fugues often play off each other -- yet his interpretations are quite colorful and varied over the course of the set. Neither cerebral nor effusive, Fellner renders the music in an appealing middle area between schools of interpretation, and achieves imaginative results that should please both traditionalists and fans of period practice."

"One need only hear Till Fellner's opening bars of the C major Prelude to know we've been taken in by a most heartfelt performance of The Well-Tempered Clavier. The Viennese pianist's unparalleled grace and fluidity, aided by a rather "submerged" recording, serve to enlarge the visual field of the music at hand. And by the time we get to the C minor Prelude, we know there is no escape from this miraculous cage. Fellner always manages to keep himself at a distance, as if the music were coming from a dream he never wishes to abandon.

These pieces are like bits of life in concentrated form, each prelude a genetic signature and every fugue the trait it enables in the growing organism. Fellner bows to every movement and allows the dynamics to unfold from within. The faster sections in particular show a marked infusion of drama, each building through a slow fade-in to a more pronounced finish. Prime examples of this include the C-sharp major, G major, and B major Preludes, and the E minor Fugue. Fellner also makes the most of striking juxtapositions. The sprightly D major Prelude, for example, is all the more enlivening for being paired with the C-shrap minor Fugue's beautiful lag. Yet never has a Bach interpreter so evocatively captured my interest in the slower movements, and no more so than in Prelude and Fugue in B minor. The A major Fugue and F minor Prelude go straight to the gut, and the F-sharp major Prelude practically weeps from the keyboard. Some of the album's most emotional moments are to be found in the celestial G minor Prelude, with an opening trill that practically sings. And so, it is rather fitting that Book I should end on the somber B minor Fugue, seeming to regret its impending end while also fully resigning itself to the sentiment it has left behind.

Fellner has achieved something truly magical in this recording. Not only has be managed to "reopen" The Well-Tempered Clavier with his warmth, but he has done so by stretching it into a vaster tapestry, thereby allowing us to visualize every shadowy figure that passes through it. We distinguish mere snatches of form-an eye, a pair of parted lips, perhaps an extending hand-so that every nuance brings us closer to understanding the corporeal totality of the music. Fellner's superb handling turns even the most staid movements into fresh listening experiences, while his airy separation and delicately applied arpeggios turn every polyphonic moment into its own soundscape. The album's softness is, I think, as much a part of Fellner's aesthetic as it is of ECM's. Yet for all that Fellner brings to this project, the music comes through with renewed vigor, and that is the sign of a singular musician indeed.

Review by Tyran Grillo, ECMreviews.com
"




Tracklist:

CD1 - Praludien Und Fugen I-XII:

01. Präludium C-Dur (02:04)
02. Fuge C-Dur (01:53)
03. Präludium c-Moll (01:18)
04. Fuge c-Moll (01:59)
05. Präludium Cis-Dur (01:19)
06. Fuge Cis-Dur (02:21)
07. Präludium cis-Moll (02:25)
08. Fuge cis-Moll (04:10)
09. Präludium D-Dur (01:08)
10. Fuge D-Dur (01:48)
11. Präludium d-Moll (01:40)
12. Fuge d-Moll (02:26)
13. Präludium Es-Dur (03:18)
14. Fuge Es-Dur (01:46)
15. Präludium es/dis-Moll (03:48)
16. Fuge es/dis-Moll (05:52)
17. Präludium E-Dur (01:18)
18. Fuge E-Dur (01:06)
19. Präludium e-Moll (02:09)
20. Fuge e-Moll (01:13)
21. Präludium F-Dur (00:52)
22. Fuge F-Dur (01:32)
23. Präludium f-Moll (01:42)
24. Fuge f-Moll (04:53)

CD2 - Praludien Und Fugen XIII-XXIV:

01. Präludium Fis-Dur (01:19)
02. Fuge Fis-Dur (02:04)
03. Präludium fis-Moll (00:56)
04. Fuge fis-Moll (04:08)
05. Präludium G-Dur (00:50)
06. Fuge G-Dur (02:32)
07. Präludium g-Moll (02:27)
08. Fuge g-Moll (02:23)
09. Präludium As-Dur (01:33)
10. Fuge As-Dur (02:07)
11. Präludium gis-Moll (01:29)
12. Fuge gis-Moll (03:47)
13. Präludium A-Dur (01:04)
14. Fuge A-Dur (02:16)
15. Präludium a-Moll (00:59)
16. Fuge a-Moll (05:20)
17. Präludium B-Dur (01:05)
18. Fuge B-Dur (01:43)
19. Präludium b-Moll (03:09)
20. Fuge b-Moll (03:32)
21. Präludium H-Dur (01:10)
22. Fuge H-Dur (02:45)
23. Präludium h-Moll (05:44)
24. Fuge h-Moll (06:14)


Exact Audio Copy V0.99 prebeta 5 from 4. May 2009

EAC extraction logfile from 14. September 2010, 0:46

Till Fellner / J.S. Bach - Das Wohltemperierte Klavier - Praludien und Fugen I - XII - BWV 846-857

Used drive : TSSTcorpCDDVDW SH-S223Q Adapter: 1 ID: 1

Read mode : Secure
Utilize accurate stream : Yes
Defeat audio cache : Yes
Make use of C2 pointers : No

Read offset correction

: 6
Overread into Lead-In and Lead-Out : No
Fill up missing offset samples with silence : Yes
Delete leading and trailing silent blocks : No
Null samples used in CRC calculations : Yes
Used interface
: Installed external ASPI interface
Gap handling
: Appended to previous track

Used output format : User Defined Encoder
Selected bitrate : 128 kBit/s
Quality : High
Add ID3 tag : No
Command line compressor : C:\Program Files\Exact Audio Copy\Flac\flac.exe
Additional command line options : -V -8 -T "artist=%a" -T "title=%t" -T "album=%g" -T "date=%y" -T "tracknumber=%n" -T "genre=%m" %s

TOC of the extracted CD Track | Start | Length | Start sector | End sector
--1 | 0:00.00 | 2:04.00 | 0 | 9299 2 | 2:04.00 | 1:53.00 | 9300 | 17774 3 | 3:57.00 | 1:18.30 | 17775 | 23654 4 | 5:15.30 | 1:59.60 | 23655 | 32639 5 | 7:15.15 | 1:19.67 | 32640 | 38631 6 | 8:35.07 | 2:21.44 | 38632 | 49250 7 | 10:56.51 | 2:25.24 | 49251 | 60149 8 | 13:22.00 | 4:10.15 | 60150 | 78914 9 | 17:32.15 | 1:08.15 | 78915 | 84029
10 | 18:40.30 | 1:48.07 | 84030 | 92136
11 | 20:28.37 | 1:40.08 | 92137 | 99644
12 | 22:08.45 | 2:26.30 | 99645 | 110624
13 | 24:35.00 | 3:18.52 | 110625 | 125526
14 | 27:53.52 | 1:46.23 | 125527 | 133499
15 | 29:40.00 | 3:48.45 | 133500 | 150644
16 | 33:28.45 | 5:52.30 | 150645 | 177074
17 | 39:21.00 | 1:18.07 | 177075 | 182931
18 | 40:39.07 | 1:06.53 | 182932 | 187934
19 | 41:45.60 | 2:09.59 | 187935 | 197668
20 | 43:55.44 | 1:13.31 | 197669 | 203174
21 | 45:09.00 | 0:52.15 | 203175 | 207089
22 | 46:01.15 | 1:32.20 | 207090 | 214009
23 | 47:33.35 | 1:42.62 | 214010 | 221721
24 | 49:16.22 | 4:53.09 | 221722 | 243705

Track 1 Filename C:\eacrips\Till Fellner - J.S. Bach - Das Wohltemperierte Klavier - Praludien und Fugen I - XII - BWV 846-857 (2004) - FLAC\01 - Praeludium C-Dur.wav Pre-gap length 0:00:02.00 Peak level 33.9 %
Track quality 100.0 %
Test CRC 34FA4ADA
Copy CRC 34FA4ADA
Accurately ripped (confidence 11) [095713F2]
Copy OK

Track 2 Filename C:\eacrips\Till Fellner - J.S. Bach - Das Wohltemperierte Klavier - Praludien und Fugen I - XII - BWV 846-857 (2004) - FLAC\02 - Fuge C-Dur.wav Peak level 48.3 %
Track quality 100.0 %
Test CRC 2EA3EA4A
Copy CRC 2EA3EA4A
Accurately ripped (confidence 11) [56C7BD29]
Copy OK

Track 3 Filename C:\eacrips\Till Fellner - J.S. Bach - Das Wohltemperierte Klavier - Praludien und Fugen I - XII - BWV 846-857 (2004) - FLAC\03 - Praeludium c-Moll.wav Peak level 52.7 %
Track quality 100.0 %
Test CRC E049A737
Copy CRC E049A737
Accurately ripped (confidence 11) [37C16A87]
Copy OK

Track 4 Filename C:\eacrips\Till Fellner - J.S. Bach - Das Wohltemperierte Klavier - Praludien und Fugen I - XII - BWV 846-857 (2004) - FLAC\04 - Fuge c-Moll.wav Peak level 51.6 %
Track quality 100.0 %
Test CRC 31F8ABB0
Copy CRC 31F8ABB0
Accurately ripped (confidence 11) [7229E5A6]
Copy OK

Track 5 Filename C:\eacrips\Till Fellner - J.S. Bach - Das Wohltemperierte Klavier - Praludien und Fugen I - XII - BWV 846-857 (2004) - FLAC\05 - Praeludium Cis-Dur.wav Peak level 56.9 %
Track quality 100.0 %
Test CRC A0C3AF7A
Copy CRC A0C3AF7A
Accurately ripped (confidence 11) [F56F459B]
Copy OK

Track 6 Filename C:\eacrips\Till Fellner - J.S. Bach - Das Wohltemperierte Klavier - Praludien und Fugen I - XII - BWV 846-857 (2004) - FLAC\06 - Fuge Cis-Dur.wav Peak level 66.2 %
Track quality 100.0 %
Test CRC 8C525824
Copy CRC 8C525824
Accurately ripped (confidence 11) 73DAA95
Copy OK

Track 7 Filename C:\eacrips\Till Fellner - J.S. Bach - Das Wohltemperierte Klavier - Praludien und Fugen I - XII - BWV 846-857 (2004) - FLAC\07 - Praeludium cis-Moll.wav Peak level 37.3 %
Track quality 100.0 %
Test CRC 22C3C6BE
Copy CRC 22C3C6BE
Accurately ripped (confidence 10) [168F1304]
Copy OK

Track 8 Filename C:\eacrips\Till Fellner - J.S. Bach - Das Wohltemperierte Klavier - Praludien und Fugen I - XII - BWV 846-857 (2004) - FLAC\08 - Fuge cis-Moll.wav Peak level 80.1 %
Track quality 100.0 %
Test CRC 4D5BE761
Copy CRC 4D5BE761
Accurately ripped (confidence 11) [AEEEA8C2]
Copy OK

Track 9 Filename C:\eacrips\Till Fellner - J.S. Bach - Das Wohltemperierte Klavier - Praludien und Fugen I - XII - BWV 846-857 (2004) - FLAC\09 - Praeludium D-Dur.wav Peak level 70.5 %
Track quality 100.0 %
Test CRC 6A8E09FC
Copy CRC 6A8E09FC
Accurately ripped (confidence 11) [58E86137]
Copy OK

Track 10 Filename C:\eacrips\Till Fellner - J.S. Bach - Das Wohltemperierte Klavier - Praludien und Fugen I - XII - BWV 846-857 (2004) - FLAC\10 - Fuge D-Dur.wav Peak level 70.0 %
Track quality 100.0 %
Test CRC F9DCF528
Copy CRC F9DCF528
Accurately ripped (confidence 11) [C1483831]
Copy OK

Track 11 Filename C:\eacrips\Till Fellner - J.S. Bach - Das Wohltemperierte Klavier - Praludien und Fugen I - XII - BWV 846-857 (2004) - FLAC\11 - Praeludium d-Moll.wav Peak level 58.6 %
Track quality 100.0 %
Test CRC 40E0E732
Copy CRC 40E0E732
Accurately ripped (confidence 11) [EECB19D5]
Copy OK

Track 12 Filename C:\eacrips\Till Fellner - J.S. Bach - Das Wohltemperierte Klavier - Praludien und Fugen I - XII - BWV 846-857 (2004) - FLAC\12 - Fuge d-Moll.wav Peak level 37.1 %
Track quality 100.0 %
Test CRC EA3ADD65
Copy CRC EA3ADD65
Accurately ripped (confidence 11) [39A354F6]
Copy OK

Track 13 Filename C:\eacrips\Till Fellner - J.S. Bach - Das Wohltemperierte Klavier - Praludien und Fugen I - XII - BWV 846-857 (2004) - FLAC\13 - Praeludium Es-Dur.wav Peak level 57.3 %
Track quality 100.0 %
Test CRC FE1ADF04
Copy CRC FE1ADF04
Accurately ripped (confidence 11) [6A3AA440]
Copy OK

Track 14 Filename C:\eacrips\Till Fellner - J.S. Bach - Das Wohltemperierte Klavier - Praludien und Fugen I - XII - BWV 846-857 (2004) - FLAC\14 - Fuge Es-Dur.wav Peak level 42.5 %
Track quality 100.0 %
Test CRC B3480926
Copy CRC B3480926
Accurately ripped (confidence 11) [D0B96F10]
Copy OK

Track 15 Filename C:\eacrips\Till Fellner - J.S. Bach - Das Wohltemperierte Klavier - Praludien und Fugen I - XII - BWV 846-857 (2004) - FLAC\15 - Praeludium es-Moll.wav Peak level 64.3 %
Track quality 100.0 %
Test CRC 2B8FA4B8
Copy CRC 2B8FA4B8
Accurately ripped (confidence 11) [F544B97C]
Copy OK

Track 16 Filename C:\eacrips\Till Fellner - J.S. Bach - Das Wohltemperierte Klavier - Praludien und Fugen I - XII - BWV 846-857 (2004) - FLAC\16 - Fuge es-Moll.wav Peak level 47.4 %
Track quality 100.0 %
Test CRC D39C3577
Copy CRC D39C3577
Accurately ripped (confidence 11) [CBFDD489]
Copy OK

Track 17 Filename C:\eacrips\Till Fellner - J.S. Bach - Das Wohltemperierte Klavier - Praludien und Fugen I - XII - BWV 846-857 (2004) - FLAC\17 - Praeludium E-Dur.wav Peak level 29.2 %
Track quality 100.0 %
Test CRC 1412E8BA
Copy CRC 1412E8BA
Accurately ripped (confidence 11) [42D8D794]
Copy OK

Track 18 Filename C:\eacrips\Till Fellner - J.S. Bach - Das Wohltemperierte Klavier - Praludien und Fugen I - XII - BWV 846-857 (2004) - FLAC\18 - Fuge E-Dur.wav Peak level 62.9 %
Track quality 100.0 %
Test CRC 491F7276
Copy CRC 491F7276
Accurately ripped (confidence 11) [80D08439]
Copy OK

Track 19 Filename C:\eacrips\Till Fellner - J.S. Bach - Das Wohltemperierte Klavier - Praludien und Fugen I - XII - BWV 846-857 (2004) - FLAC\19 - Praeludium e-Moll.wav Peak level 67.9 %
Track quality 100.0 %
Test CRC 64FC07DE
Copy CRC 64FC07DE
Accurately ripped (confidence 11) [94D0E29C]
Copy OK

Track 20 Filename C:\eacrips\Till Fellner - J.S. Bach - Das Wohltemperierte Klavier - Praludien und Fugen I - XII - BWV 846-857 (2004) - FLAC\20 - Fuge e-Moll.wav Peak level 56.3 %
Track quality 100.0 %
Test CRC FD22DCB3
Copy CRC FD22DCB3
Accurately ripped (confidence 11) [1043C9B5]
Copy OK

Track 21 Filename C:\eacrips\Till Fellner - J.S. Bach - Das Wohltemperierte Klavier - Praludien und Fugen I - XII - BWV 846-857 (2004) - FLAC\21 - Praeludium F-Dur.wav Peak level 50.2 %
Track quality 100.0 %
Test CRC FBCCFF7B
Copy CRC FBCCFF7B
Accurately ripped (confidence 11) [3813226F]
Copy OK

Track 22 Filename C:\eacrips\Till Fellner - J.S. Bach - Das Wohltemperierte Klavier - Praludien und Fugen I - XII - BWV 846-857 (2004) - FLAC\22 - Fuge F-Dur.wav Peak level 40.2 %
Track quality 100.0 %
Test CRC 9FCD5AC2
Copy CRC 9FCD5AC2
Accurately ripped (confidence 11) [3D178BF7]
Copy OK

Track 23 Filename C:\eacrips\Till Fellner - J.S. Bach - Das Wohltemperierte Klavier - Praludien und Fugen I - XII - BWV 846-857 (2004) - FLAC\23 - Praeludium f-Moll.wav Peak level 39.3 %
Track quality 100.0 %
Test CRC 5B8D567D
Copy CRC 5B8D567D
Accurately ripped (confidence 11) [7AA61169]
Copy OK

Track 24 Filename C:\eacrips\Till Fellner - J.S. Bach - Das Wohltemperierte Klavier - Praludien und Fugen I - XII - BWV 846-857 (2004) - FLAC\24 - Fuge f-Moll.wav Peak level 45.9 %
Track quality 100.0 %
Test CRC B5E278BF
Copy CRC B5E278BF
Accurately ripped (confidence 10) [DF4A30F9]
Copy OK

All tracks accurately ripped

No errors occurred

End of status report

[CUETools log; Date: 01.10.2015 22:54:01; Version: 2.1.4]
[CTDB TOCID: 56073V._QRRTwHY0go_Z5cxYZlc-] found.
Track | CTDB Status
1 | (22/23) Accurately ripped
2 | (22/23) Accurately ripped
3 | (22/23) Accurately ripped
4 | (22/23) Accurately ripped
5 | (22/23) Accurately ripped
6 | (22/23) Accurately ripped
7 | (22/23) Accurately ripped
8 | (20/23) Accurately ripped
9 | (20/23) Accurately ripped
10 | (22/23) Accurately ripped
11 | (22/23) Accurately ripped
12 | (22/23) Accurately ripped
13 | (21/23) Accurately ripped
14 | (22/23) Accurately ripped
15 | (22/23) Accurately ripped
16 | (19/23) Accurately ripped
17 | (20/23) Accurately ripped
18 | (22/23) Accurately ripped
19 | (22/23) Accurately ripped
20 | (22/23) Accurately ripped
21 | (22/23) Accurately ripped
22 | (22/23) Accurately ripped
23 | (22/23) Accurately ripped
24 | (19/23) Accurately ripped
[AccurateRip ID: 002ce32d-031583db-390cb118] found.
Track [ CRC | V2 ] Status
01 [095713f2|f9d7cbe4] (13+18/56) Accurately ripped
02 [56c7bd29|325bef03] (13+18/57) Accurately ripped
03 [37c16a87|f620c524] (13+18/57) Accurately ripped
04 [7229e5a6|0e5875ea] (13+18/57) Accurately ripped
05 [f56f459b|664d567c] (13+18/57) Accurately ripped
06 73daa95|01d08091 (13+18/56) Accurately ripped
07 [168f1304|9e23dd73] (12+18/56) Accurately ripped
08 [aeeea8c2|bc8b7f70] (13+18/57) Accurately ripped
09 [58e86137|e2d0fed0] (13+18/57) Accurately ripped
10 [c1483831|5bf62478] (13+17/55) Accurately ripped
11 [eecb19d5|36c478f3] (13+17/55) Accurately ripped
12 [39a354f6|8975ef86] (13+17/54) Accurately ripped
13 [6a3aa440|f39b2326] (13+18/56) Accurately ripped
14 [d0b96f10|72471de0] (13+18/55) Accurately ripped
15 [f544b97c|29a8cc4d] (12+18/54) Accurately ripped
16 [cbfdd489|309babec] (13+18/56) Accurately ripped
17 [42d8d794|c183d7a2] (13+18/57) Accurately ripped
18 [80d08439|a9bfb008] (12+18/56) Accurately ripped
19 [94d0e29c|e8493cf3] (12+17/55) Accurately ripped
20 [1043c9b5|67dcf68f] (13+18/56) Accurately ripped
21 [3813226f|9eb7a3ac] (13+18/57) Accurately ripped
22 [3d178bf7|822fa176] (13+18/57) Accurately ripped
23 [7aa61169|66c64c49] (13+18/57) Accurately ripped
24 [df4a30f9|5f3df409] (12+18/54) Accurately ripped
Offsetted by -308:
01 [96f6876c] (00/56) No match (V2 was not tested)
02 [2983475a] (06/57) Accurately ripped
03 [8e5b9015] (06/57) Accurately ripped
04 [d4a293e1] (06/57) Accurately ripped
05 [a2fb306d] (06/57) Accurately ripped
06 [ed343f63] (05/56) Accurately ripped
07 [abc2479f] (06/56) Accurately ripped
08 [57a9084c] (06/57) Accurately ripped
09 [e09b5976] (06/57) Accurately ripped
10 [f3728788] (05/55) Accurately ripped
11 [9adaa44b] (05/55) Accurately ripped
12 2fae43a (05/54) Accurately ripped
13 [3d02980f] (06/56) Accurately ripped
14 56a1b7f (06/55) Accurately ripped
15 [c2502d79] (06/54) Accurately ripped
16 40f7b9a (06/56) Accurately ripped
17 [556a1934] (06/57) Accurately ripped
18 [57c818e2] (06/56) Accurately ripped
19 [ac956e84] (06/55) Accurately ripped
20 [fd8dd43b] (06/56) Accurately ripped
21 [81c33bf2] (06/57) Accurately ripped
22 [533275ad] (06/57) Accurately ripped
23 [c7bd9cc9] (06/57) Accurately ripped
24 [607d7a8b] (05/54) Accurately ripped

Track Peak [ CRC32 ] [W/O NULL] [ LOG ]
-- 80,1 [3818E531] [0E7D8C64]
01 33,9 [34FA4ADA] [9409C96D] CRC32
02 48,3 [2EA3EA4A] [7CF13494] CRC32
03 52,7 [E049A737] [6CDDB2AC] CRC32
04 51,6 [31F8ABB0] [F1881E2A] CRC32
05 56,9 [A0C3AF7A] [7E741949] CRC32
06 66,2 [8C525824] [604BB7B2] CRC32
07 37,3 [22C3C6BE] [C239DCFE] CRC32
08 80,1 [4D5BE761] [76C34001] CRC32
09 70,5 [6A8E09FC] [DC7D2A85] CRC32
10 70,0 [F9DCF528] 7C9D115 CRC32
11 58,6 [40E0E732] [1037889D] CRC32
12 37,1 [EA3ADD65] [59401BB8] CRC32
13 57,3 [FE1ADF04] [06470475] CRC32
14 42,5 3480926 [EC818651] CRC32
15 64,3 [2B8FA4B8] [DFC031FA] CRC32
16 47,4 [D39C3577] [E135B45D] CRC32
17 29,2 [1412E8BA] [3BFDD73E] CRC32
18 62,9 [491F7276] [ADDC9F68] CRC32
19 67,9 [64FC07DE] C7A624D CRC32
20 56,3 [FD22DCB3] [5A339852] CRC32
21 50,2 [FBCCFF7B] [C3FFF35C] CRC32
22 40,2 [9FCD5AC2] [8D1333D3] CRC32
23 39,3 [5B8D567D] [3CACB694] CRC32
24 45,9 5E278BF [76F76058] CRC32

foobar2000 1.2 / Dynamic Range Meter 1.1.1
log date: 2015-10-01 23:04:48

Analyzed: Till Fellner / Präludien Und Fugen I-XII BWV 846-857

DR Peak RMS Duration Track

DR10 -9.37 dB -25.04 dB 2:04 01-Präludium C-Dur
DR12 -6.32 dB -21.63 dB 1:53 02-Fuge C-Dur
DR10 -5.56 dB -20.29 dB 1:18 03-Präludium c-Moll
DR12 -5.73 dB -22.51 dB 2:00 04-Fuge c-Moll
DR12 -4.89 dB -23.66 dB 1:20 05-Präludium Cis-Dur
DR13 -3.58 dB -22.03 dB 2:22 06-Fuge Cis-Dur
DR11 -8.56 dB -24.13 dB 2:25 07-Präludium cis-Moll
DR13 -1.92 dB -21.07 dB 4:10 08-Fuge cis-Moll
DR13 -3.04 dB -21.52 dB 1:08 09-Präludium D-Dur
DR13 -3.09 dB -20.46 dB 1:48 10-Fuge D-Dur
DR13 -4.64 dB -22.69 dB 1:40 11-Präludium d-Moll
DR11 -8.60 dB -23.46 dB 2:26 12-Fuge d-Moll
DR12 -4.82 dB -21.48 dB 3:19 13-Präludium Es-Dur
DR13 -7.43 dB -23.68 dB 1:46 14-Fuge Es-Dur
DR15 -3.83 dB -24.85 dB 3:49 15-Präludium es/dis-Moll
DR13 -6.48 dB -23.65 dB 5:52 16-Fuge es/dis-Moll
DR11 -10.69 dB -25.48 dB 1:18 17-Präludium E-Dur
DR11 -4.02 dB -20.49 dB 1:07 18-Fuge E-Dur
DR12 -3.36 dB -22.65 dB 2:10 19-Präludium e-Moll
DR11 -4.97 dB -20.16 dB 1:13 20-Fuge e-Moll
DR11 -5.98 dB -21.46 dB 0:52 21-Präludium F-Dur
DR11 -7.90 dB -24.28 dB 1:32 22-Fuge F-Dur
DR11 -8.10 dB -23.80 dB 1:43 23-Präludium f-Moll
DR13 -6.76 dB -23.94 dB 4:53 24-Fuge f-Moll

Number of tracks: 24
Official DR value: DR12

Samplerate: 44100 Hz
Channels: 2
Bits per sample: 16
Bitrate: 356 kbps
Codec: FLAC

Exact Audio Copy V0.99 prebeta 5 from 4. May 2009

EAC extraction logfile from 14. September 2010, 0:46

Till Fellner / J.S. Bach - Das Wohltemperierte Klavier - Praludien und Fugen XIII - XXIV - BWV 846-857

Used drive : TSSTcorpCDDVDW SH-S223L Adapter: 2 ID: 0

Read mode : Secure
Utilize accurate stream : Yes
Defeat audio cache : Yes
Make use of C2 pointers : No

Read offset correction

: 6
Overread into Lead-In and Lead-Out : No
Fill up missing offset samples with silence : Yes
Delete leading and trailing silent blocks : No
Null samples used in CRC calculations : Yes
Used interface
: Installed external ASPI interface
Gap handling
: Appended to previous track

Used output format : User Defined Encoder
Selected bitrate : 128 kBit/s
Quality : High
Add ID3 tag : No
Command line compressor : C:\Program Files\Exact Audio Copy\Flac\flac.exe
Additional command line options : -V -8 -T "artist=%a" -T "title=%t" -T "album=%g" -T "date=%y" -T "tracknumber=%n" -T "genre=%m" %s

TOC of the extracted CD Track | Start | Length | Start sector | End sector
--1 | 0:00.00 | 1:19.07 | 0 | 5931 2 | 1:19.07 | 2:04.17 | 5932 | 15248 3 | 3:23.24 | 0:56.51 | 15249 | 19499 4 | 4:20.00 | 4:08.54 | 19500 | 38153 5 | 8:28.54 | 0:50.16 | 38154 | 41919 6 | 9:18.70 | 2:32.38 | 41920 | 53357 7 | 11:51.33 | 2:27.04 | 53358 | 64386 8 | 14:18.37 | 2:23.27 | 64387 | 75138 9 | 16:41.64 | 1:33.11 | 75139 | 82124
10 | 18:15.00 | 2:07.00 | 82125 | 91649
11 | 20:22.00 | 1:29.30 | 91650 | 98354
12 | 21:51.30 | 3:47.62 | 98355 | 115441
13 | 25:39.17 | 1:04.03 | 115442 | 120244
14 | 26:43.20 | 2:16.63 | 120245 | 130507
15 | 29:00.08 | 0:59.40 | 130508 | 134972
16 | 29:59.48 | 5:20.27 | 134973 | 158999
17 | 35:20.00 | 1:05.45 | 159000 | 163919
18 | 36:25.45 | 1:43.30 | 163920 | 171674
19 | 38:09.00 | 3:09.15 | 171675 | 185864
20 | 41:18.15 | 3:32.51 | 185865 | 201815
21 | 44:50.66 | 1:10.61 | 201816 | 207126
22 | 46:01.52 | 2:45.02 | 207127 | 219503
23 | 48:46.54 | 5:44.21 | 219504 | 245324
24 | 54:31.00 | 6:14.21 | 245325 | 273395

Track 1 Filename C:\eacrips\Till Fellner - J.S. Bach - Das Wohltemperierte Klavier - Praludien und Fugen XIII - XXIV - BWV 846-857 (2004) - FLAC\01 - Prдludium Fis-Dur.wav Pre-gap length 0:00:02.00 Peak level 29.1 %
Track quality 100.0 %
Test CRC 0EE28189
Copy CRC 0EE28189
Accurately ripped (confidence 12) [706DA941]
Copy OK

Track 2 Filename C:\eacrips\Till Fellner - J.S. Bach - Das Wohltemperierte Klavier - Praludien und Fugen XIII - XXIV - BWV 846-857 (2004) - FLAC\02 - Fuge Fis-Dur.wav Peak level 35.6 %
Track quality 100.0 %
Test CRC 427289E7
Copy CRC 427289E7
Accurately ripped (confidence 12) D5194FF
Copy OK

Track 3 Filename C:\eacrips\Till Fellner - J.S. Bach - Das Wohltemperierte Klavier - Praludien und Fugen XIII - XXIV - BWV 846-857 (2004) - FLAC\03 - Prдludium fis-Moll.wav Peak level 62.8 %
Track quality 100.0 %
Test CRC 201A1DD0
Copy CRC 201A1DD0
Accurately ripped (confidence 12) [C90EB3C2]
Copy OK

Track 4 Filename C:\eacrips\Till Fellner - J.S. Bach - Das Wohltemperierte Klavier - Praludien und Fugen XIII - XXIV - BWV 846-857 (2004) - FLAC\04 - Fuge fis-Moll.wav Peak level 31.4 %
Track quality 99.9 %
Test CRC C5DD5A52
Copy CRC C5DD5A52
Accurately ripped (confidence 12) [20790588]
Copy OK

Track 5 Filename C:\eacrips\Till Fellner - J.S. Bach - Das Wohltemperierte Klavier - Praludien und Fugen XIII - XXIV - BWV 846-857 (2004) - FLAC\05 - Prдludium G-Dur.wav Peak level 57.2 %
Track quality 100.0 %
Test CRC C0E0B092
Copy CRC C0E0B092
Accurately ripped (confidence 12) [3D7629E1]
Copy OK

Track 6 Filename C:\eacrips\Till Fellner - J.S. Bach - Das Wohltemperierte Klavier - Praludien und Fugen XIII - XXIV - BWV 846-857 (2004) - FLAC\06 - Fuge G-Dur.wav Peak level 57.9 %
Track quality 100.0 %
Test CRC B2DBB782
Copy CRC B2DBB782
Accurately ripped (confidence 12) [3C710E68]
Copy OK

Track 7 Filename C:\eacrips\Till Fellner - J.S. Bach - Das Wohltemperierte Klavier - Praludien und Fugen XIII - XXIV - BWV 846-857 (2004) - FLAC\07 - Prдludium g-Moll.wav Peak level 27.9 %
Track quality 100.0 %
Test CRC CB408620
Copy CRC CB408620
Accurately ripped (confidence 12) [262F2832]
Copy OK

Track 8 Filename C:\eacrips\Till Fellner - J.S. Bach - Das Wohltemperierte Klavier - Praludien und Fugen XIII - XXIV - BWV 846-857 (2004) - FLAC\08 - Fuge g-Moll.wav Peak level 56.3 %
Track quality 100.0 %
Test CRC 759197B8
Copy CRC 759197B8
Accurately ripped (confidence 12) [24E92818]
Copy OK

Track 9 Filename C:\eacrips\Till Fellner - J.S. Bach - Das Wohltemperierte Klavier - Praludien und Fugen XIII - XXIV - BWV 846-857 (2004) - FLAC\09 - Prдludium As-Dur.wav Peak level 43.6 %
Track quality 100.0 %
Test CRC 43DBBA94
Copy CRC 43DBBA94
Accurately ripped (confidence 12) [E3367EB0]
Copy OK

Track 10 Filename C:\eacrips\Till Fellner - J.S. Bach - Das Wohltemperierte Klavier - Praludien und Fugen XIII - XXIV - BWV 846-857 (2004) - FLAC\10 - Fuge As-Dur.wav Peak level 58.9 %
Track quality 100.0 %
Test CRC 08B989FA
Copy CRC 08B989FA
Accurately ripped (confidence 12) [DD41E873]
Copy OK

Track 11 Filename C:\eacrips\Till Fellner - J.S. Bach - Das Wohltemperierte Klavier - Praludien und Fugen XIII - XXIV - BWV 846-857 (2004) - FLAC\11 - Prдludium gis-Moll.wav Peak level 39.8 %
Track quality 100.0 %
Test CRC 9C13AE90
Copy CRC 9C13AE90
Accurately ripped (confidence 12) [165B1CA7]
Copy OK

Track 12 Filename C:\eacrips\Till Fellner - J.S. Bach - Das Wohltemperierte Klavier - Praludien und Fugen XIII - XXIV - BWV 846-857 (2004) - FLAC\12 - Fuge gis-Moll.wav Peak level 44.9 %
Track quality 100.0 %
Test CRC EB098E33
Copy CRC EB098E33
Accurately ripped (confidence 12) [0BDA3FE9]
Copy OK

Track 13 Filename C:\eacrips\Till Fellner - J.S. Bach - Das Wohltemperierte Klavier - Praludien und Fugen XIII - XXIV - BWV 846-857 (2004) - FLAC\13 - Prдludium A-Dur.wav Peak level 48.2 %
Track quality 100.0 %
Test CRC 3B17DA8D
Copy CRC 3B17DA8D
Accurately ripped (confidence 12) [7A8A0ECD]
Copy OK

Track 14 Filename C:\eacrips\Till Fellner - J.S. Bach - Das Wohltemperierte Klavier - Praludien und Fugen XIII - XXIV - BWV 846-857 (2004) - FLAC\14 - Fuge A-Dur.wav Peak level 39.8 %
Track quality 100.0 %
Test CRC 98FC98A9
Copy CRC 98FC98A9
Accurately ripped (confidence 12) [D71670AF]
Copy OK

Track 15 Filename C:\eacrips\Till Fellner - J.S. Bach - Das Wohltemperierte Klavier - Praludien und Fugen XIII - XXIV - BWV 846-857 (2004) - FLAC\15 - Prдludium a-Moll.wav Peak level 53.9 %
Track quality 100.0 %
Test CRC 10907F34
Copy CRC 10907F34
Accurately ripped (confidence 12) [5EE59D77]
Copy OK

Track 16 Filename C:\eacrips\Till Fellner - J.S. Bach - Das Wohltemperierte Klavier - Praludien und Fugen XIII - XXIV - BWV 846-857 (2004) - FLAC\16 - Fuge a-Moll.wav Peak level 87.2 %
Track quality 100.0 %
Test CRC A06FE64E
Copy CRC A06FE64E
Accurately ripped (confidence 12) [21F40563]
Copy OK

Track 17 Filename C:\eacrips\Till Fellner - J.S. Bach - Das Wohltemperierte Klavier - Praludien und Fugen XIII - XXIV - BWV 846-857 (2004) - FLAC\17 - Prдludium B-Dur.wav Peak level 76.5 %
Track quality 100.0 %
Test CRC 712A3F57
Copy CRC 712A3F57
Accurately ripped (confidence 12) F3517EF
Copy OK

Track 18 Filename C:\eacrips\Till Fellner - J.S. Bach - Das Wohltemperierte Klavier - Praludien und Fugen XIII - XXIV - BWV 846-857 (2004) - FLAC\18 - Fuge B-Dur.wav Peak level 47.1 %
Track quality 100.0 %
Test CRC 14C8E476
Copy CRC 14C8E476
Accurately ripped (confidence 12) [CA471D33]
Copy OK

Track 19 Filename C:\eacrips\Till Fellner - J.S. Bach - Das Wohltemperierte Klavier - Praludien und Fugen XIII - XXIV - BWV 846-857 (2004) - FLAC\19 - Prдludium b-Moll.wav Peak level 51.0 %
Track quality 100.0 %
Test CRC AD3E5D3A
Copy CRC AD3E5D3A
Accurately ripped (confidence 12) [18099416]
Copy OK

Track 20 Filename C:\eacrips\Till Fellner - J.S. Bach - Das Wohltemperierte Klavier - Praludien und Fugen XIII - XXIV - BWV 846-857 (2004) - FLAC\20 - Fuge b-Moll.wav Peak level 60.3 %
Track quality 100.0 %
Test CRC DB47CDE6
Copy CRC DB47CDE6
Accurately ripped (confidence 12) [59C98100]
Copy OK

Track 21 Filename C:\eacrips\Till Fellner - J.S. Bach - Das Wohltemperierte Klavier - Praludien und Fugen XIII - XXIV - BWV 846-857 (2004) - FLAC\21 - Prдludium H-Dur.wav Peak level 35.5 %
Track quality 100.0 %
Test CRC FF4E7728
Copy CRC FF4E7728
Accurately ripped (confidence 12) [3EB5CFEE]
Copy OK

Track 22 Filename C:\eacrips\Till Fellner - J.S. Bach - Das Wohltemperierte Klavier - Praludien und Fugen XIII - XXIV - BWV 846-857 (2004) - FLAC\22 - Fuge H-Dur.wav Peak level 39.4 %
Track quality 99.9 %
Test CRC 62665EDA
Copy CRC 62665EDA
Accurately ripped (confidence 12) [4D90B410]
Copy OK

Track 23 Filename C:\eacrips\Till Fellner - J.S. Bach - Das Wohltemperierte Klavier - Praludien und Fugen XIII - XXIV - BWV 846-857 (2004) - FLAC\23 - Prдludium h-Moll.wav Peak level 24.2 %
Track quality 100.0 %
Test CRC B458E507
Copy CRC B458E507
Accurately ripped (confidence 12) 397E0F3
Copy OK

Track 24 Filename C:\eacrips\Till Fellner - J.S. Bach - Das Wohltemperierte Klavier - Praludien und Fugen XIII - XXIV - BWV 846-857 (2004) - FLAC\24 - Fuge h-Moll.wav Peak level 61.3 %
Track quality 100.0 %
Test CRC D2D2D6AB
Copy CRC D2D2D6AB
Accurately ripped (confidence 12) A953EC0
Copy OK

All tracks accurately ripped

No errors occurred

End of status report

[CUETools log; Date: 01.10.2015 22:54:18; Version: 2.1.4]
[CTDB TOCID: miLZCSsXoiSJsm9msk8uhQu9r44-] found.
Track | CTDB Status
1 | (20/21) Accurately ripped
2 | (20/21) Accurately ripped
3 | (20/21) Accurately ripped
4 | (19/21) Accurately ripped
5 | (20/21) Accurately ripped
6 | (20/21) Accurately ripped
7 | (20/21) Accurately ripped
8 | (20/21) Accurately ripped
9 | (20/21) Accurately ripped
10 | (20/21) Accurately ripped
11 | (20/21) Accurately ripped
12 | (20/21) Accurately ripped
13 | (20/21) Accurately ripped
14 | (20/21) Accurately ripped
15 | (20/21) Accurately ripped
16 | (19/21) Accurately ripped
17 | (20/21) Accurately ripped
18 | (20/21) Accurately ripped
19 | (20/21) Accurately ripped
20 | (19/21) Accurately ripped
21 | (20/21) Accurately ripped
22 | (20/21) Accurately ripped
23 | (20/21) Accurately ripped
24 | (20/21) Accurately ripped
[AccurateRip ID: 002c7905-0314284e-1a0e3d18] found.
Track [ CRC | V2 ] Status
01 [706da941|b6d2ae01] (13+16/52) Accurately ripped
02 d5194ff|490ec983 (13+16/53) Accurately ripped
03 [c90eb3c2|b22b8bed] (13+17/54) Accurately ripped
04 [20790588|441b82ae] (13+17/54) Accurately ripped
05 [3d7629e1|f7d1c5c2] (13+17/54) Accurately ripped
06 [3c710e68|c13a7b72] (13+17/54) Accurately ripped
07 [262f2832|f2427f3f] (13+17/54) Accurately ripped
08 [24e92818|1265ab88] (13+17/54) Accurately ripped
09 [e3367eb0|bf42e2c4] (13+17/54) Accurately ripped
10 [dd41e873|90a41ff7] (13+17/54) Accurately ripped
11 [165b1ca7|a0525a00] (13+16/53) Accurately ripped
12 [0bda3fe9|cf1035b1] (13+17/54) Accurately ripped
13 [7a8a0ecd|e1fcff97] (13+17/54) Accurately ripped
14 [d71670af|f4b12125] (13+17/54) Accurately ripped
15 [5ee59d77|2ad0d5cf] (13+17/54) Accurately ripped
16 [21f40563|bc4f26c6] (13+17/53) Accurately ripped
17 f3517ef|37f54a37 (13+17/53) Accurately ripped
18 [ca471d33|87e5ea56] (13+17/52) Accurately ripped
19 [18099416|fdad7bf5] (13+17/53) Accurately ripped
20 [59c98100|b6a985fd] (13+17/53) Accurately ripped
21 [3eb5cfee|8a80f49d] (13+17/53) Accurately ripped
22 [4d90b410|4d4108e6] (13+17/53) Accurately ripped
23 397e0f3|0acf6133 (13+16/53) Accurately ripped
24 a953ec0|c727ca04 (13+17/53) Accurately ripped
Offsetted by -308:
01 [f080b583] (00/52) No match (V2 was not tested)
02 [d13a4206] (06/53) Accurately ripped
03 [cfe2928c] (06/54) Accurately ripped
04 [2026c533] (06/54) Accurately ripped
05 [c34df894] (06/54) Accurately ripped
06 [38f3731d] (06/54) Accurately ripped
07 [1ff3059e] (06/54) Accurately ripped
08 [a9c565ba] (06/54) Accurately ripped
09 [12b732c2] (06/54) Accurately ripped
10 [cf723143] (06/54) Accurately ripped
11 [e1f3b99b] (06/53) Accurately ripped
12 [ec551f25] (06/54) Accurately ripped
13 [6fbfe2a8] (06/54) Accurately ripped
14 [2f31cf99] (06/54) Accurately ripped
15 [78933a6b] (06/54) Accurately ripped
16 [72231d60] (06/53) Accurately ripped
17 [3dd96706] (06/53) Accurately ripped
18 [ef1418bd] (05/52) Accurately ripped
19 [3737ad0c] (06/53) Accurately ripped
20 89e3b58 (06/53) Accurately ripped
21 [20f97975] (06/53) Accurately ripped
22 0e96e2b (06/53) Accurately ripped
23 [de099e0e] (06/53) Accurately ripped
24 [07ddd9bf] (06/53) Accurately ripped

Track Peak [ CRC32 ] [W/O NULL] [ LOG ]
-- 87,2 [9F495670] [4E6749B6]
01 29,1 [0EE28189] [6C28DCC0] CRC32
02 35,6 [427289E7] [CAB44A8A] CRC32
03 62,8 [201A1DD0] [4CAB6FB9] CRC32
04 31,4 [C5DD5A52] [3F8F70EA] CRC32
05 57,2 [C0E0B092] [AAD02AB8] CRC32
06 57,9 2DBB782 [96B609DA] CRC32
07 27,9 [CB408620] [173D4030] CRC32
08 56,3 [759197B8] CA38D46 CRC32
09 43,6 [43DBBA94] [7AD44170] CRC32
10 58,9 [08B989FA] [EFCDBC55] CRC32
11 39,8 [9C13AE90] [F8A83A4A] CRC32
12 44,9 [EB098E33] [E4F71520] CRC32
13 48,2 [3B17DA8D] [6AEF5DBA] CRC32
14 39,8 [98FC98A9] [9DC1A5DF] CRC32
15 53,9 [10907F34] [54EDAE8C] CRC32
16 87,2 [A06FE64E] [F478C006] CRC32
17 76,5 [712A3F57] [39FD35EB] CRC32
18 47,1 [14C8E476] [31803FB2] CRC32
19 51,0 [AD3E5D3A] [79106A79] CRC32
20 60,3 [DB47CDE6] 85BFA26 CRC32
21 35,5 [FF4E7728] [34F1B878] CRC32
22 39,4 [62665EDA] [FFC6E197] CRC32
23 24,2 458E507 [5FFD19AE] CRC32
24 61,3 [D2D2D6AB] 3607475 CRC32

foobar2000 1.2 / Dynamic Range Meter 1.1.1
log date: 2015-10-01 23:05:04

Analyzed: Till Fellner / Präludien Und Fugen XIII-XXIV BWV 846-857

DR Peak RMS Duration Track

DR10 -10.70 dB -25.38 dB 1:19 01-Präludium Fis-Dur
DR11 -8.97 dB -24.14 dB 2:04 02-Fuge Fis-Dur
DR12 -4.03 dB -19.24 dB 0:57 03-Präludium fis-Moll
DR13 -10.04 dB -26.62 dB 4:09 04-Fuge fis-Moll
DR11 -4.84 dB -22.37 dB 0:50 05-Präludium G-Dur
DR11 -4.74 dB -21.30 dB 2:33 06-Fuge G-Dur
DR12 -11.06 dB -26.86 dB 2:27 07-Präludium g-Moll
DR13 -4.98 dB -22.29 dB 2:23 08-Fuge g-Moll
DR11 -7.21 dB -24.33 dB 1:33 09-Präludium As-Dur
DR12 -4.58 dB -21.78 dB 2:07 10-Fuge As-Dur
DR11 -8.00 dB -23.47 dB 1:29 11-Präludium gis-Moll
DR13 -6.95 dB -24.67 dB 3:48 12-Fuge gis-Moll
DR10 -6.33 dB -21.30 dB 1:04 13-Präludium A-Dur
DR11 -7.99 dB -22.71 dB 2:17 14-Fuge A-Dur
DR12 -5.35 dB -20.60 dB 1:00 15-Präludium a-Moll
DR14 -1.18 dB -21.27 dB 5:20 16-Fuge a-Moll
DR13 -2.33 dB -20.38 dB 1:06 17-Präludium B-Dur
DR12 -6.54 dB -24.13 dB 1:43 18-Fuge B-Dur
DR15 -5.84 dB -26.64 dB 3:09 19-Präludium b-Moll
DR14 -4.39 dB -24.18 dB 3:33 20-Fuge b-Moll
DR11 -8.99 dB -23.84 dB 1:11 21-Präludium H-Dur
DR12 -8.09 dB -23.83 dB 2:45 22-Fuge H-Dur
DR13 -12.32 dB -29.17 dB 5:44 23-Präludium h-Moll
DR14 -4.24 dB -23.17 dB 6:14 24-Fuge h-Moll

Number of tracks: 24
Official DR value: DR12

Samplerate: 44100 Hz
Channels: 2
Bits per sample: 16
Bitrate: 367 kbps
Codec: FLAC

Till Fellner - J.S. Bach: Das Wohltemperierte Klavier, Buch 1 (2004) 2CD

Till Fellner - J.S. Bach: Das Wohltemperierte Klavier, Buch 1 (2004) 2CD

All thanks to original releaser
Password: designol

DOWNLOAD LINKS
Buy Premium From My Links To Get Resumable Support & Max Speed & To Support Me


Links are Interchangeable - No Password - Single Extraction
Direct Download

Tags: Fellner, Wohltemperierte, Klavier

Till Fellner - J.S. Bach: Das Wohltemperierte Klavier, Buch 1 (2004) 2CD Download via Hotfile Rapidshare Fileserve Megaupload & FileSonic, Till Fellner - J.S. Bach: Das Wohltemperierte Klavier, Buch 1 (2004) 2CD free torrent downloads included crack, serial, keygen.Till Fellner - J.S. Bach: Das Wohltemperierte Klavier, Buch 1 (2004) 2CD Fast Download via Rapidshare Hotfile Fileserve Filesonic Megaupload, Till Fellner - J.S. Bach: Das Wohltemperierte Klavier, Buch 1 (2004) 2CD Torrents and Emule Download or anything related.
Leave a Comment
Your Name:
E-Mail:
Add Comments:

Enter Code: