Giovanni Tommaso - Bassoprofilo (2011) {CamJazz}

Download Now

Giovanni Tommaso - Bassoprofilo (2011) {CamJazz}

Giovanni Tommaso - Bassoprofilo (2011) {CamJazz}
EAC 1.0b3 | FLAC tracks level 8 | Cue+Log+M3U | Full Scans 600dpi | 277MB + 5% Recovery
Genre: Italian Jazz

"The fact that Giovanni Tommaso is one of the most important players in the history of Italian jazz needs no further questioning. This is true today, as it was in the past, confirming Tommaso as a fascinating, sensitive and amazing artist; but the new "Bassoprofilo" goes right to the heart as the Tuscan bassist pens one of his most intriguing works. Together with two unique talents such as clarinet player Gabriele Mirabassi and accordion player Simone Zanchini, Tommaso moves within the territories of improvisation, melody and lyricism, in a journey that brings out his full talent as composer."

Track List
01. Artigiani 6:54
02. Mi-Ama-Zurka 2:39
03. Buster Keaton Never Smiles 1:15
04. Brahmosia 7:51
05. A Vanspettacolo 2:31
06. Passata E' La Tempesta... 5.00
07. Palloncini 3:29
08. Blues For Tony Scott 7:39
09. Sostenuto 8:26

musicians
Giovanni Tommaso - double bass
Gabriele Mirabassi - clarinet
Simone Zanchini - accordion

Produced by Ermanno Basso

Exact Audio Copy V1.0 beta 3 from 29. August 2011

EAC extraction logfile from 27. August 2015, 18:01

Giovanni Tommaso / Bassoprofilo

Used drive : hp DVD-RAM GHB0N Adapter: 0 ID: 0

Read mode : Secure
Utilize accurate stream : Yes
Defeat audio cache : Yes
Make use of C2 pointers : No

Read offset correction

: 6
Overread into Lead-In and Lead-Out : No
Fill up missing offset samples with silence : Yes
Delete leading and trailing silent blocks : No
Null samples used in CRC calculations : Yes
Used interface
: Native Win32 interface for Win NT & 2000
Gap handling
: Appended to previous track

Used output format : User Defined Encoder
Selected bitrate : 1024 kBit/s
Quality : High
Add ID3 tag : No
Command line compressor : C:\Program Files (x86)\Exact Audio Copy\FLAC\FLAC.EXE
Additional command line options : -8 -V -T "ARTIST=%artist%" -T "TITLE=%title%" -T "ALBUM=%albumtitle%" -T "DATE=%year%" -T "TRACKNUMBER=%tracknr%" -T "TOTALTRACKS=%numtracks%" -T "GENRE=%genre%" -T "ALBUM ARTIST=%albumartist%" -T "ALBUMARTIST=%albumartist%" -T "COMMENT=EAC V1.0 beta 3, Secure Mode, Test & Copy, AccurateRip, FLAC -8" %source%

TOC of the extracted CD Track | Start | Length | Start sector | End sector
--1 | 0:00.00 | 6:56.30 | 0 | 31229 2 | 6:56.30 | 2:41.15 | 31230 | 43319 3 | 9:37.45 | 1:19.05 | 43320 | 49249 4 | 10:56.50 | 7:52.58 | 49250 | 84707 5 | 18:49.33 | 2:35.08 | 84708 | 96340 6 | 21:24.41 | 5:01.65 | 96341 | 118980 7 | 26:26.31 | 3:32.48 | 118981 | 134928 8 | 29:59.04 | 7:41.46 | 134929 | 169549 9 | 37:40.50 | 8:26.09 | 169550 | 207508

Track 1 Filename C:\Users\Maison\Downloads\Rips\01 - Artigiani.wav Pre-gap length 0:00:02.00 Peak level 95.3 %
Extraction speed 2.0 X
Track quality 100.0 %
Test CRC 95BF0DE2
Copy CRC 95BF0DE2
Accurately ripped (confidence 3) [5E4F69A4] (AR v2)
Copy OK

Track 2 Filename C:\Users\Maison\Downloads\Rips\02 - Mi-Ama-Zurka.wav Pre-gap length 0:00:02.00 Peak level 95.2 %
Extraction speed 2.0 X
Track quality 100.0 %
Test CRC 1DB8E393
Copy CRC 1DB8E393
Accurately ripped (confidence 3) [4EEAC7CD] (AR v2)
Copy OK

Track 3 Filename C:\Users\Maison\Downloads\Rips\03 - Buster Keaton Never Smiles.wav Pre-gap length 0:00:02.00 Peak level 95.2 %
Extraction speed 1.8 X
Track quality 100.0 %
Test CRC 861A0B13
Copy CRC 861A0B13
Accurately ripped (confidence 3) [CC98165D] (AR v2)
Copy OK

Track 4 Filename C:\Users\Maison\Downloads\Rips\04 - Brahmosia.wav Pre-gap length 0:00:03.24 Peak level 67.4 %
Extraction speed 2.2 X
Track quality 99.9 %
Test CRC 00CEACB6
Copy CRC 00CEACB6
Accurately ripped (confidence 3) [D2F0F4FA] (AR v2)
Copy OK

Track 5 Filename C:\Users\Maison\Downloads\Rips\05 - A Vanspettacolo.wav Pre-gap length 0:00:01.15 Peak level 95.3 %
Extraction speed 2.4 X
Track quality 100.0 %
Test CRC 88487096
Copy CRC 88487096
Accurately ripped (confidence 3) [C25D72A1] (AR v2)
Copy OK

Track 6 Filename C:\Users\Maison\Downloads\Rips\06 - Passata E' La Tempesta....wav Pre-gap length 0:00:03.09 Peak level 95.3 %
Extraction speed 2.8 X
Track quality 100.0 %
Test CRC 0074D2B9
Copy CRC 0074D2B9
Accurately ripped (confidence 3) [29FDDB36] (AR v2)
Copy OK

Track 7 Filename C:\Users\Maison\Downloads\Rips\07 - Palloncini.wav Pre-gap length 0:00:01.43 Peak level 95.3 %
Extraction speed 2.9 X
Track quality 100.0 %
Test CRC 3EFAD6B6
Copy CRC 3EFAD6B6
Accurately ripped (confidence 3) [034CC5BB] (AR v2)
Copy OK

Track 8 Filename C:\Users\Maison\Downloads\Rips\08 - Blues For Tony Scott.wav Pre-gap length 0:00:03.01 Peak level 95.8 %
Extraction speed 3.3 X
Track quality 100.0 %
Test CRC 4E7A387B
Copy CRC 4E7A387B
Accurately ripped (confidence 3) [2D19100D] (AR v2)
Copy OK

Track 9 Filename C:\Users\Maison\Downloads\Rips\09 - SOStenuto.wav Pre-gap length 0:00:02.00 Peak level 96.4 %
Extraction speed 3.6 X
Track quality 100.0 %
Test CRC 2BE3E8F4
Copy CRC 2BE3E8F4
Accurately ripped (confidence 3) [C1B8C537] (AR v2)
Copy OK

All tracks accurately ripped

No errors occurred

End of status report

==== Log checksum E4F0E471EE9DCB0719A75E5A586C60634267727407C484F6401F0C4D4894A019 ====

Analyzed: Giovanni Tommaso / Bassoprofilo

DR Peak RMS Duration Track

DR11 -0.41 dB -14.19 dB 6:56 01-Artigiani
DR10 -0.42 dB -13.29 dB 2:41 02-Mi-Ama-Zurka
DR11 -0.42 dB -14.57 dB 1:19 03-Buster Keaton Never Smiles
DR11 -3.42 dB -18.87 dB 7:53 04-Brahmosia
DR10 -0.41 dB -12.49 dB 2:35 05-A Vanspettacolo
DR8 -0.41 dB -11.39 dB 5:02 06-Passata E' La Tempesta...
DR11 -0.42 dB -14.18 dB 3:33 07-Palloncini
DR8 -0.37 dB -11.66 dB 7:42 08-Blues For Tony Scott
DR8 -0.31 dB -11.13 dB 8:26 09-SOStenuto

Number of tracks: 9
Official DR value: DR10

Samplerate: 44100 Hz
Channels: 2
Bits per sample: 16
Bitrate: 762 kbps
Codec: FLAC

Giovanni Tommaso - Bassoprofilo (2011) {CamJazz}

Giovanni Tommaso - Bassoprofilo (2011) {CamJazz}

Giovanni Tommaso - Bassoprofilo (2011) {CamJazz}

Rip by tdelyon


DOWNLOAD LINKS
Buy Premium From My Links To Get Resumable Support & Max Speed & To Support Me


Links are Interchangeable - No Password - Single Extraction
Direct Download

Tags: Giovanni, Tommaso, Bassoprofilo, CamJazz

Giovanni Tommaso - Bassoprofilo (2011) {CamJazz} Download via Hotfile Rapidshare Fileserve Megaupload & FileSonic, Giovanni Tommaso - Bassoprofilo (2011) {CamJazz} free torrent downloads included crack, serial, keygen.Giovanni Tommaso - Bassoprofilo (2011) {CamJazz} Fast Download via Rapidshare Hotfile Fileserve Filesonic Megaupload, Giovanni Tommaso - Bassoprofilo (2011) {CamJazz} Torrents and Emule Download or anything related.
Leave a Comment
Your Name:
E-Mail:
Add Comments:

Enter Code: