Carola - Original Album Classics: 1983-1993 (2010) [3CD Box Set]

Download Now

Carola - Original Album Classics: 1983-1993 (2010) [3CD Box Set]

Carola - Original Album Classics: 1983-1993 (2010) [3CD Box Set]
Pop/Rock, Electronic, R&B, Gospel | EAC Rip | FLAC, Tracks+CUE + LOG + Full Artwork-600dpi (JPEG) | 02:32:34 h. | 1,1 Gb
Label: Rival / Sony Music Entertainment Sweden AB (EU) | Released: 2010, February, 2

"
Three classic artist albums. Nice and simple, no frills just great music! Includes Främling (1983), Steg För Steg (1984) and My Tribute (1993).
"

Carola - Original Album Classics: 1983-1993 (2010) [3CD Box Set]


Release of this Box Set: 2010, February, 2 [CD-Set Rival / Sony Music Entertainment Sweden AB (EU) 88697596592 / UPC: UPC: 886975965922]

Främling: ℗ 1983 & © 2009 Sony Music Entertainment Sweden AB
Steg För Steg: ℗ 1984 & © 2009 Sony Music Entertainment Sweden AB
My Tribute: ℗ 1993 & © 2009 Sony Music Entertainment Sweden AB

This compilation ℗ & © 2009 Sony Music Entertainment Sweden AB.
Manufactured in the E.U.


Producers: Lasse Holm (CD1, tracks: 1 to 12; CD2, tracks: 1 to 13), Lennart Sjöholm (CD2, tracks: 1 to 13), Stephan Berg (CD2, tracks: 9), Tore W. Aas (CD3, tracks: 1 to 12)

Original Album Series: Carola (2010):

Carola - Original Album Classics: 1983-1993 (2010) [3CD Box Set]

CD1: Carola - Främling (1983)
Pop/Rock, Electronic, Schlager | EAC Rip | FLAC, Tracks+CUE + LOG + Full Artwork-600dpi (JPEG) | 48:26 Min | 346,43 Mb
Label: Rival / Sony Music Entertainment Sweden AB (EU) | Released: 2010, February, 2

Carola - Original Album Classics: 1983-1993 (2010) [3CD Box Set]

"
Främling (literally "Stranger") is an album from Swedish pop singer Carola Häggkvist, released on March 26, 1983. It was her debut album. On the album charts, the albums peaked at #1 in Sweden and #2 in Norway.
source: wikipedia

"


Tracklist:

01. "Främling" (03:00)
(Lasse Holm, Monica Forsberg)
02. "Säg Mig Var Du Står" (03:55)
(G. Elias, Ingela Forsman, M. Dusier, P. Souer)
03. "Benjamin" (03:10)
(G. Elias, Ingela Forsman, M. Duiser)
04. "Gör Det Någonting" (04:45)
(Monica Forsberg, Torgny Söderberg)
05. "Gloria" (04:37)
(G.C. Bigazzi, Ingela Forsman, Umberto Tozzi)
06. "You Bring Out The Best In Me" (04:43)
(Ben Findon, M. Myers)
07. "Mickey" (04:08)
(M. Chapman, Nicky Chinn, Ingela Forsman)
08. "Se På Mig" (04:20)
(Lasse Holm, Monica Forsberg)
09. "Liv" (04:43)
(Lasse Holm, Ingela Forsman)
10. "Visa Lite Mänsklighet" (04:04)
(Liza Öhman, M. Leeson, Pete Vale)
11. "14 Maj" (03:03)
(T. Cliff, B. Wade, Ingela Forsman)
12. "Du Försvinner I Natten" (03:59)
(Andrew McCrorie-Shand, Liza Öhman)

Exact Audio Copy V1.0 beta 3 from 29. August 2011

EAC extraction logfile from 4. September 2014, 14:28

Carola / Främling

Used drive : ASUS DRW-24F1ST a Adapter: 2 ID: 0

Read mode : Secure
Utilize accurate stream : Yes
Defeat audio cache : No
Make use of C2 pointers : No

Read offset correction

: 6
Overread into Lead-In and Lead-Out : No
Fill up missing offset samples with silence : Yes
Delete leading and trailing silent blocks : No
Null samples used in CRC calculations : Yes
Used interface
: Native Win32 interface for Win NT & 2000
Gap handling
: Not detected, thus appended to previous track

Used output format : User Defined Encoder
Selected bitrate : 768 kBit/s
Quality : High
Add ID3 tag : No
Command line compressor : C:\Program Files (x86)\Exact Audio Copy\FLAC\FLAC.EXE
Additional command line options : -8 -V -T "ARTIST=%artist%" -T "TITLE=%title%" -T "ALBUM=%albumtitle%" -T "DATE=%year%" -T "TRACKNUMBER=%tracknr%" -T "GENRE=%genre%" -T "COMMENT=%comment%" -T "BAND=%albuminterpret%" -T "ALBUMARTIST=%albuminterpret%" -T "COMPOSER=%composer%" %haslyrics%--tag-from-file=LYRICS="%lyricsfile%"%haslyrics% -T "DISCNUMBER=%cdnumber%" -T "TOTALDISCS=%totalcds%" -T "TOTALTRACKS=%numtracks%" %hascover%--picture="%coverfile%"%hascover% %source% -o %dest%

TOC of the extracted CD Track | Start | Length | Start sector | End sector
--1 | 0:00.00 | 3:00.05 | 0 | 13504 2 | 3:00.05 | 3:54.45 | 13505 | 31099 3 | 6:54.50 | 3:10.07 | 31100 | 45356 4 | 10:04.57 | 4:45.10 | 45357 | 66741 5 | 14:49.67 | 4:36.53 | 66742 | 87494 6 | 19:26.45 | 4:43.35 | 87495 | 108754 7 | 24:10.05 | 4:07.65 | 108755 | 127344 8 | 28:17.70 | 4:20.27 | 127345 | 146871 9 | 32:38.22 | 4:43.30 | 146872 | 168126
10 | 37:21.52 | 4:03.45 | 168127 | 186396
11 | 41:25.22 | 3:02.48 | 186397 | 200094
12 | 44:27.70 | 3:58.57 | 200095 | 218001

Track 1 Filename E:\Rippat\Carola - Främling [1983] FLAC\01 Carola - Främling - Främling.wav Peak level 100.0 %
Extraction speed 2.9 X
Track quality 100.0 %
Copy CRC 6185A40B
Accurately ripped (confidence 3) [F1109D9F] (AR v2)
Copy OK

Track 2 Filename E:\Rippat\Carola - Främling [1983] FLAC\02 Carola - Främling - Säg mig var du står (Why Tell Me Why).wav Peak level 98.4 %
Extraction speed 3.2 X
Track quality 100.0 %
Copy CRC 17B567CB
Accurately ripped (confidence 3) [21457CDB] (AR v2)
Copy OK

Track 3 Filename E:\Rippat\Carola - Främling [1983] FLAC\03 Carola - Främling - Benjamin.wav Peak level 100.0 %
Extraction speed 3.5 X
Track quality 100.0 %
Copy CRC 94B60DA2
Accurately ripped (confidence 3) [A1422A16] (AR v2)
Copy OK

Track 4 Filename E:\Rippat\Carola - Främling [1983] FLAC\04 Carola - Främling - Gör det någonting.wav Peak level 99.9 %
Extraction speed 3.8 X
Track quality 100.0 %
Copy CRC 6E52BBB2
Accurately ripped (confidence 3) [C60EEE14] (AR v2)
Copy OK

Track 5 Filename E:\Rippat\Carola - Främling [1983] FLAC\05 Carola - Främling - Gloria.wav Peak level 100.0 %
Extraction speed 4.1 X
Track quality 100.0 %
Copy CRC 0EE8BB09
Accurately ripped (confidence 3) [F27F2FAD] (AR v2)
Copy OK

Track 6 Filename E:\Rippat\Carola - Främling [1983] FLAC\06 Carola - Främling - You Bring Out The Best In Me.wav Peak level 100.0 %
Extraction speed 4.3 X
Track quality 100.0 %
Copy CRC 2A634377
Accurately ripped (confidence 3) [39FC2F6C] (AR v2)
Copy OK

Track 7 Filename E:\Rippat\Carola - Främling [1983] FLAC\07 Carola - Främling - Mickey.wav Peak level 100.0 %
Extraction speed 4.6 X
Track quality 100.0 %
Copy CRC 6A8DE110
Accurately ripped (confidence 3) [F7F92F1D] (AR v2)
Copy OK

Track 8 Filename E:\Rippat\Carola - Främling [1983] FLAC\08 Carola - Främling - Se på mig.wav Peak level 100.0 %
Extraction speed 4.8 X
Track quality 100.0 %
Copy CRC 9DF2326E
Accurately ripped (confidence 3) [F4C4E5A7] (AR v2)
Copy OK

Track 9 Filename E:\Rippat\Carola - Främling [1983] FLAC\09 Carola - Främling - Liv.wav Peak level 100.0 %
Extraction speed 5.0 X
Track quality 100.0 %
Copy CRC 0794D494
Accurately ripped (confidence 3) [0ECB9241] (AR v2)
Copy OK

Track 10 Filename E:\Rippat\Carola - Främling [1983] FLAC\10 Carola - Främling - Visa lite mänsklighet (A Little Tenderness).wav Peak level 100.0 %
Extraction speed 5.2 X
Track quality 100.0 %
Copy CRC 27C08AD9
Accurately ripped (confidence 3) [D06C5E5B] (AR v2)
Copy OK

Track 11 Filename E:\Rippat\Carola - Främling [1983] FLAC\11 Carola - Främling - 14 Maj.wav Peak level 100.0 %
Extraction speed 5.3 X
Track quality 100.0 %
Copy CRC E120F6E6
Accurately ripped (confidence 3) [A62A6597] (AR v2)
Copy OK

Track 12 Filename E:\Rippat\Carola - Främling [1983] FLAC\12 Carola - Främling - Du försvinner i natten (Paris Dies In The Morning).wav Peak level 100.0 %
Extraction speed 5.5 X
Track quality 100.0 %
Copy CRC 340E3054
Accurately ripped (confidence 3) [ED9EB16F] (AR v2)
Copy OK

All tracks accurately ripped

No errors occurred

End of status report

foobar2000 1.3.7 / Dynamic Range Meter 1.1.1
log date: 2015-10-04 13:51:50

Analyzed: Carola / Främling

DR Peak RMS Duration Track

DR9 0.00 dB -11.09 dB 3:00 01-Främling
DR9 -0.14 dB -12.12 dB 3:55 02-Säg mig var du står (Why Tell Me Why)
DR10 0.00 dB -12.13 dB 3:10 03-Benjamin
DR9 -0.01 dB -12.04 dB 4:45 04-Gör det någonting
DR10 0.00 dB -10.94 dB 4:37 05-Gloria
DR10 0.00 dB -12.09 dB 4:43 06-You Bring Out The Best In Me
DR10 0.00 dB -11.50 dB 4:08 07-Mickey
DR9 0.00 dB -10.92 dB 4:20 08-Se på mig
DR9 0.00 dB -11.26 dB 4:43 09-Liv
DR9 0.00 dB -11.07 dB 4:04 10-Visa lite mänsklighet (A Little Tenderness)
DR10 0.00 dB -11.30 dB 3:03 11-14 Maj
DR9 0.00 dB -11.71 dB 3:59 12-Du försvinner i natten (Paris Dies In The Morning)

Number of tracks: 12
Official DR value: DR9

Samplerate: 44100 Hz
Channels: 2
Bits per sample: 16
Bitrate: 952 kbps
Codec: FLAC

=

Carola - Original Album Classics: 1983-1993 (2010) [3CD Box Set]

CD2: Carola - Steg För Steg (1984)
Pop/Rock, Electronic, Schlager | EAC Rip | FLAC, Tracks+CUE + LOG + Full Artwork-600dpi (JPEG) | 52:58 Min | 388,84 Mb
Label: Rival / Sony Music Entertainment Sweden AB (EU) | Released: 2010, February, 2

Carola - Original Album Classics: 1983-1993 (2010) [3CD Box Set]

"
Steg För Steg is an album from Swedish pop singer Carola Häggkvist, released on 12 April 1984. The album was produced by Lasse Holm and Lennart Sjöholm. On the album charts, the album peaked at #1 in Sweden and #2 in Norway.
source: wikipedia

"


Tracklist:

01. "Tommy Tycker Om Mig" (03:53)
(Ingela Forsman, Lasse Holm)
02. "Jag Har Funnit Mig Själv" (03:15)
(Ingela Forsman, Lasse Holm)
03. "Det Regnar I Stockholm" (04:04)
(Ingela Forsman, Lasse Holm)
04. "I Am A Woman, I Am" (03:04)
(Rob Wilder)
05. "Som En Fjäril" (04:14)
(Ingela Forsman, Lasse Holm)
06. "Radio Love" (02:57)
(Ingela Forsman, Torgny Söderberg)
07. "Steg För Steg" (04:51)
(Ingela Forsman, Lasse Holm)
08. "Thunder And Lightning" (04:04)
(Ingela Forsman, Lasse Holm)
09. "Tokyo" (03:21)
(Ingela Forsman, Lasse Holm, Stephan Berg)
10. "Ännu En Dag" (04:34)
(Ingela Forsman, Lasse Holm)
11. "Think I Like It" (04:04)
(Ingela Forsman, Lasse Holm)
12. "När Festen Tagit Slut" (04:10)
(Anders Glenmark, Ingela Forsman)
13. 60-Tals Potpurri/60's Medley:
The Locomotion, Oh Carol, Bobby's Girl, Hey Paula, Sheila, My Boy Lollipop, Do You Wanna Dance (06:25)

Exact Audio Copy V1.0 beta 3 from 29. August 2011

EAC extraction logfile from 5. September 2014, 17:59

Carola / Steg för steg

Used drive : ASUS DRW-24F1ST a Adapter: 2 ID: 0

Read mode : Secure
Utilize accurate stream : Yes
Defeat audio cache : No
Make use of C2 pointers : No

Read offset correction

: 6
Overread into Lead-In and Lead-Out : No
Fill up missing offset samples with silence : Yes
Delete leading and trailing silent blocks : No
Null samples used in CRC calculations : Yes
Used interface
: Native Win32 interface for Win NT & 2000
Gap handling
: Not detected, thus appended to previous track

Used output format : User Defined Encoder
Selected bitrate : 768 kBit/s
Quality : High
Add ID3 tag : No
Command line compressor : C:\Program Files (x86)\Exact Audio Copy\FLAC\FLAC.EXE
Additional command line options : -8 -V -T "ARTIST=%artist%" -T "TITLE=%title%" -T "ALBUM=%albumtitle%" -T "DATE=%year%" -T "TRACKNUMBER=%tracknr%" -T "GENRE=%genre%" -T "COMMENT=%comment%" -T "BAND=%albuminterpret%" -T "ALBUMARTIST=%albuminterpret%" -T "COMPOSER=%composer%" %haslyrics%--tag-from-file=LYRICS="%lyricsfile%"%haslyrics% -T "DISCNUMBER=%cdnumber%" -T "TOTALDISCS=%totalcds%" -T "TOTALTRACKS=%numtracks%" %hascover%--picture="%coverfile%"%hascover% %source% -o %dest%

TOC of the extracted CD Track | Start | Length | Start sector | End sector
--1 | 0:00.00 | 3:52.58 | 0 | 17457 2 | 3:52.58 | 3:14.70 | 17458 | 32077 3 | 7:07.53 | 4:04.25 | 32078 | 50402 4 | 11:12.03 | 3:04.17 | 50403 | 64219 5 | 14:16.20 | 4:14.35 | 64220 | 83304 6 | 18:30.55 | 2:57.35 | 83305 | 96614 7 | 21:28.15 | 4:51.25 | 96615 | 118464 8 | 26:19.40 | 4:04.13 | 118465 | 136777 9 | 30:23.53 | 3:21.07 | 136778 | 151859
10 | 33:44.60 | 4:34.10 | 151860 | 172419
11 | 38:18.70 | 4:04.08 | 172420 | 190727
12 | 42:23.03 | 4:09.60 | 190728 | 209462
13 | 46:32.63 | 6:25.20 | 209463 | 238357

Track 1 Filename E:\Rippat\Carola - Steg för steg [1984] FLAC\01 Carola - Steg för steg - Tommy tycker om mig.wav Peak level 100.0 %
Extraction speed 6.0 X
Track quality 100.0 %
Copy CRC 7EAC0628
Accurately ripped (confidence 2) [A37FB9F5] (AR v2)
Copy OK

Track 2 Filename E:\Rippat\Carola - Steg för steg [1984] FLAC\02 Carola - Steg för steg - Jag har funnit mig själv.wav Peak level 100.0 %
Extraction speed 3.2 X
Track quality 100.0 %
Copy CRC 29EA803B
Accurately ripped (confidence 2) 1AF6427 (AR v2)
Copy OK

Track 3 Filename E:\Rippat\Carola - Steg för steg [1984] FLAC\03 Carola - Steg för steg - Det regnar i Stockholm.wav Peak level 98.6 %
Extraction speed 3.5 X
Track quality 99.9 %
Copy CRC 4ED636FC
Accurately ripped (confidence 2) [C1EBAF42] (AR v2)
Copy OK

Track 4 Filename E:\Rippat\Carola - Steg för steg [1984] FLAC\04 Carola - Steg för steg - I am a Woman, I am.wav Peak level 99.5 %
Extraction speed 3.6 X
Track quality 99.9 %
Copy CRC 586CE5E2
Accurately ripped (confidence 2) [36BE346B] (AR v2)
Copy OK

Track 5 Filename E:\Rippat\Carola - Steg för steg [1984] FLAC\05 Carola - Steg för steg - Som en fjäril.wav Peak level 100.0 %
Extraction speed 4.0 X
Track quality 100.0 %
Copy CRC C31AAF74
Accurately ripped (confidence 2) [6358F8DA] (AR v2)
Copy OK

Track 6 Filename E:\Rippat\Carola - Steg för steg [1984] FLAC\06 Carola - Steg för steg - Radio Love.wav Peak level 100.0 %
Extraction speed 4.3 X
Track quality 100.0 %
Copy CRC 997CBC17
Accurately ripped (confidence 2) BFDF960 (AR v2)
Copy OK

Track 7 Filename E:\Rippat\Carola - Steg för steg [1984] FLAC\07 Carola - Steg för steg - Steg för steg.wav Peak level 100.0 %
Extraction speed 4.6 X
Track quality 100.0 %
Copy CRC 1C7043FC
Accurately ripped (confidence 2) [F67E636C] (AR v2)
Copy OK

Track 8 Filename E:\Rippat\Carola - Steg för steg [1984] FLAC\08 Carola - Steg för steg - Thunder and Lightning.wav Peak level 100.0 %
Extraction speed 4.8 X
Track quality 100.0 %
Copy CRC 62A1571D
Accurately ripped (confidence 2) [8903CE3C] (AR v2)
Copy OK

Track 9 Filename E:\Rippat\Carola - Steg för steg [1984] FLAC\09 Carola - Steg för steg - Tokyo.wav Peak level 100.0 %
Extraction speed 4.9 X
Track quality 100.0 %
Copy CRC BCD1CD86
Accurately ripped (confidence 2) [831A3EFC] (AR v2)
Copy OK

Track 10 Filename E:\Rippat\Carola - Steg för steg [1984] FLAC\10 Carola - Steg för steg - Ännu en dag.wav Peak level 100.0 %
Extraction speed 5.2 X
Track quality 100.0 %
Copy CRC 1B08F7B9
Accurately ripped (confidence 2) [24B2468F] (AR v2)
Copy OK

Track 11 Filename E:\Rippat\Carola - Steg för steg [1984] FLAC\11 Carola - Steg för steg - I Think I Like It.wav Peak level 100.0 %
Extraction speed 5.3 X
Track quality 100.0 %
Copy CRC B502A0A4
Accurately ripped (confidence 2) [6C5F975B] (AR v2)
Copy OK

Track 12 Filename E:\Rippat\Carola - Steg för steg [1984] FLAC\12 Carola - Steg för steg - När festen tagit slut.wav Peak level 100.0 %
Extraction speed 5.4 X
Track quality 100.0 %
Copy CRC E447D41C
Accurately ripped (confidence 2) [06D9F239] (AR v2)
Copy OK

Track 13 Filename E:\Rippat\Carola - Steg för steg [1984] FLAC\13 Carola - Steg för steg - 60-tals potpurri (med Jahn Teigen).wav Peak level 98.1 %
Extraction speed 5.7 X
Track quality 100.0 %
Copy CRC 0784413F
Accurately ripped (confidence 2) [C2AFCAF9] (AR v2)
Copy OK

All tracks accurately ripped

No errors occurred

End of status report

foobar2000 1.3.7 / Dynamic Range Meter 1.1.1
log date: 2015-10-04 13:57:41

Analyzed: Carola / Steg för steg

DR Peak RMS Duration Track

DR10 0.00 dB -11.36 dB 3:53 01-Tommy tycker om mig
DR10 0.00 dB -11.57 dB 3:15 02-Jag har funnit mig själv
DR10 -0.12 dB -13.72 dB 4:04 03-Det regnar i Stockholm
DR10 -0.04 dB -11.65 dB 3:04 04-I am a Woman, I am
DR10 0.00 dB -12.01 dB 4:14 05-Som en fjäril
DR10 0.00 dB -11.75 dB 2:57 06-Radio Love
DR11 0.00 dB -12.63 dB 4:51 07-Steg för steg
DR10 0.00 dB -11.74 dB 4:04 08-Thunder and Lightning
DR11 0.00 dB -11.76 dB 3:21 09-Tokyo
DR8 0.00 dB -11.32 dB 4:34 10-Ännu en dag
DR10 0.00 dB -11.63 dB 4:04 11-I Think I Like It
DR10 0.00 dB -11.84 dB 4:10 12-När festen tagit slut
DR10 -0.17 dB -12.76 dB 6:25 13-60-tals potpurri (med Jahn Teigen)

Number of tracks: 13
Official DR value: DR10

Samplerate: 44100 Hz
Channels: 2
Bits per sample: 16
Bitrate: 961 kbps
Codec: FLAC

=

Carola - Original Album Classics: 1983-1993 (2010) [3CD Box Set]

CD3: Carola - My Tribute (1993)
R&B, Vocal, Gospel | EAC Rip | FLAC, Tracks+CUE + LOG + Full Artwork-600dpi (JPEG) | 51:09 Min | 376,12 Mb
Label: Rival / Sony Music Entertainment Sweden AB (EU) | Released: 2010, February, 2

"
My Tribute is an English-language studio album from Swedish pop singer Carola Häggkvist, released on 25 October 1993. The album was produced by Tore W. Aas. On the album charts, the album peaked at #21 in Sweden.
source: wikipedia

"


Tracklist:

01. "It's Good To Know Jesus" (03:52)
(Franklin Williams)
02. "The Blood" (04:04)
(Andraé Crouch)
03. "Save The Children" (04:06)
(Jan Groth, Tore W. Aas)
04. "We Will Stand" (duet with Frank Ådahl) (05:48)
(James Holihan, Russ Taff, Tori Taff)
05. "Oh Happy Day" (03:30)
(Edwin Hawkins)
06. "You Light Up My Life" (03:16)
(Joe Brooks)
07. "Anybody Here" (03:40)
(Herman Harris)
08. "Hold On" (04:18)
(Ralph Loften, Sanchez Harley)
09. "Don't Be Discouraged" (05:16)
(Jan Groth, Tore W. Aas)
10. "There Is A Way" (04:37)
(David Stearman)
11. "Newborn Soul" (04:16)
(Clarence Eggleton)
12. "My Tribute (To God Be The Glory)" (04:27)
(Andraé Crouch)

Exact Audio Copy V1.0 beta 3 from 29. August 2011

EAC extraction logfile from 5. September 2014, 18:55

Carola / My Tribute

Used drive : ASUS DRW-24F1ST a Adapter: 2 ID: 0

Read mode : Secure
Utilize accurate stream : Yes
Defeat audio cache : No
Make use of C2 pointers : No

Read offset correction

: 6
Overread into Lead-In and Lead-Out : No
Fill up missing offset samples with silence : Yes
Delete leading and trailing silent blocks : No
Null samples used in CRC calculations : Yes
Used interface
: Native Win32 interface for Win NT & 2000
Gap handling
: Not detected, thus appended to previous track

Used output format : User Defined Encoder
Selected bitrate : 768 kBit/s
Quality : High
Add ID3 tag : No
Command line compressor : C:\Program Files (x86)\Exact Audio Copy\FLAC\FLAC.EXE
Additional command line options : -8 -V -T "ARTIST=%artist%" -T "TITLE=%title%" -T "ALBUM=%albumtitle%" -T "DATE=%year%" -T "TRACKNUMBER=%tracknr%" -T "GENRE=%genre%" -T "COMMENT=%comment%" -T "BAND=%albuminterpret%" -T "ALBUMARTIST=%albuminterpret%" -T "COMPOSER=%composer%" %haslyrics%--tag-from-file=LYRICS="%lyricsfile%"%haslyrics% -T "DISCNUMBER=%cdnumber%" -T "TOTALDISCS=%totalcds%" -T "TOTALTRACKS=%numtracks%" %hascover%--picture="%coverfile%"%hascover% %source% -o %dest%

TOC of the extracted CD Track | Start | Length | Start sector | End sector
--1 | 0:00.00 | 3:52.25 | 0 | 17424 2 | 3:52.25 | 4:04.05 | 17425 | 35729 3 | 7:56.30 | 4:05.60 | 35730 | 54164 4 | 12:02.15 | 5:48.20 | 54165 | 80284 5 | 17:50.35 | 3:30.30 | 80285 | 96064 6 | 21:20.65 | 3:15.55 | 96065 | 110744 7 | 24:36.45 | 3:39.53 | 110745 | 127222 8 | 28:16.23 | 4:17.62 | 127223 | 146559 9 | 32:34.10 | 5:15.70 | 146560 | 170254
10 | 37:50.05 | 4:37.00 | 170255 | 191029
11 | 42:27.05 | 4:15.50 | 191030 | 210204
12 | 46:42.55 | 4:27.05 | 210205 | 230234

Track 1 Filename E:\Rippat\Carola - My Tribute [1993] FLAC\01 Carola - My Tribute - It's Good to Know Jesus.wav Peak level 99.4 %
Extraction speed 6.0 X
Track quality 100.0 %
Copy CRC 204DDF36
Track not present in AccurateRip database
Copy OK

Track 2 Filename E:\Rippat\Carola - My Tribute [1993] FLAC\02 Carola - My Tribute - The Blood.wav Peak level 99.1 %
Extraction speed 3.2 X
Track quality 100.0 %
Copy CRC 9A82FF49
Track not present in AccurateRip database
Copy OK

Track 3 Filename E:\Rippat\Carola - My Tribute [1993] FLAC\03 Carola - My Tribute - Save the Children.wav Peak level 97.6 %
Extraction speed 3.6 X
Track quality 100.0 %
Copy CRC C46BDC11
Track not present in AccurateRip database
Copy OK

Track 4 Filename E:\Rippat\Carola - My Tribute [1993] FLAC\04 Carola - My Tribute - We Will Stand.wav Peak level 99.4 %
Extraction speed 3.8 X
Track quality 99.9 %
Copy CRC DD237343
Track not present in AccurateRip database
Copy OK

Track 5 Filename E:\Rippat\Carola - My Tribute [1993] FLAC\05 Carola - My Tribute - Oh Happy Day.wav Peak level 99.9 %
Extraction speed 4.1 X
Track quality 100.0 %
Copy CRC 476E87EE
Track not present in AccurateRip database
Copy OK

Track 6 Filename E:\Rippat\Carola - My Tribute [1993] FLAC\06 Carola - My Tribute - You Light Up My Life.wav Peak level 98.6 %
Extraction speed 4.4 X
Track quality 100.0 %
Copy CRC 9A909E87
Track not present in AccurateRip database
Copy OK

Track 7 Filename E:\Rippat\Carola - My Tribute [1993] FLAC\07 Carola - My Tribute - Anybody Here.wav Peak level 99.9 %
Extraction speed 4.6 X
Track quality 100.0 %
Copy CRC 695385F4
Track not present in AccurateRip database
Copy OK

Track 8 Filename E:\Rippat\Carola - My Tribute [1993] FLAC\08 Carola - My Tribute - Hold On.wav Peak level 99.9 %
Extraction speed 4.8 X
Track quality 100.0 %
Copy CRC 22336C11
Track not present in AccurateRip database
Copy OK

Track 9 Filename E:\Rippat\Carola - My Tribute [1993] FLAC\09 Carola - My Tribute - Don't be Discouraged.wav Peak level 99.9 %
Extraction speed 5.0 X
Track quality 100.0 %
Copy CRC 56C09BE3
Track not present in AccurateRip database
Copy OK

Track 10 Filename E:\Rippat\Carola - My Tribute [1993] FLAC\10 Carola - My Tribute - There is a Way.wav Peak level 99.6 %
Extraction speed 5.2 X
Track quality 100.0 %
Copy CRC AAE88C77
Track not present in AccurateRip database
Copy OK

Track 11 Filename E:\Rippat\Carola - My Tribute [1993] FLAC\11 Carola - My Tribute - Newborn Soul.wav Peak level 99.9 %
Extraction speed 5.4 X
Track quality 100.0 %
Copy CRC 86925E30
Track not present in AccurateRip database
Copy OK

Track 12 Filename E:\Rippat\Carola - My Tribute [1993] FLAC\12 Carola - My Tribute - My Tribute (to God be the Glory).wav Peak level 99.9 %
Extraction speed 5.6 X
Track quality 100.0 %
Copy CRC 72C9B9C3
Track not present in AccurateRip database
Copy OK

None of the tracks are present in the AccurateRip database

No errors occurred

End of status report

foobar2000 1.3.7 / Dynamic Range Meter 1.1.1
log date: 2015-10-04 13:55:27

Analyzed: Carola / My Tribute

DR Peak RMS Duration Track

DR8 -0.05 dB -10.37 dB 3:52 01-It's Good to Know Jesus
DR8 -0.08 dB -10.91 dB 4:04 02-The Blood
DR8 -0.21 dB -11.74 dB 4:06 03-Save the Children
DR8 -0.05 dB -11.32 dB 5:48 04-We Will Stand
DR9 0.00 dB -10.78 dB 3:30 05-Oh Happy Day
DR8 -0.12 dB -11.72 dB 3:16 06-You Light Up My Life
DR7 0.00 dB -9.91 dB 3:40 07-Anybody Here
DR8 0.00 dB -10.96 dB 4:18 08-Hold On
DR10 0.00 dB -12.16 dB 5:16 09-Don't be Discouraged
DR9 -0.03 dB -12.93 dB 4:37 10-There is a Way
DR8 0.00 dB -11.02 dB 4:16 11-Newborn Soul
DR7 0.00 dB -10.25 dB 4:27 12-My Tribute (to God be the Glory)

Number of tracks: 12
Official DR value: DR8

Samplerate: 44100 Hz
Channels: 2
Bits per sample: 16
Bitrate: 956 kbps
Codec: FLAC

All thanks to - keeybee

password: BlondStyle


DOWNLOAD LINKS
Buy Premium From My Links To Get Resumable Support & Max Speed & To Support Me


Links are Interchangeable - No Password - Single Extraction
Direct Download

Tags: Carola, Original, Classics

Carola - Original Album Classics: 1983-1993 (2010) [3CD Box Set] Download via Hotfile Rapidshare Fileserve Megaupload & FileSonic, Carola - Original Album Classics: 1983-1993 (2010) [3CD Box Set] free torrent downloads included crack, serial, keygen.Carola - Original Album Classics: 1983-1993 (2010) [3CD Box Set] Fast Download via Rapidshare Hotfile Fileserve Filesonic Megaupload, Carola - Original Album Classics: 1983-1993 (2010) [3CD Box Set] Torrents and Emule Download or anything related.
Leave a Comment
Your Name:
E-Mail:
Add Comments:

Enter Code: