Oasis - Live at Black Island Studios 2008 [2015, HDTV 1080i]

Download Now

Oasis - Live at Black Island Studios 2008 [2015, HDTV 1080i]

Oasis - Live at Black Island Studios 2008
TS, Mpegt4 AVC, 1920x1080, 7735 kbps, 25 fps | AC3, 2 ch, 384 Kbps
Rock / Britpop / Neo-psychedelia | 00:59:14 | ~ 3.73 Gb

~ Oasis performing on August 14, 2008 at Black Island Studios, London ~


Oasis - Live at Black Island Studios 2008 [2015, HDTV 1080i]

Oasis at Wiki | Oasis at Discogs | Oasis at Allmusic | Oasis HomePage

***********
Oasis - Live at Black Island Studios 2008:


Tracklist:

Intro
Rock'n'Roll Star
The Shock Of The Lightning
To Be Where There's Life
Waiting For The Rapture
The Masterplan
Songbird
Slide Away
Ain't Got Nothin'
The Importance Of Being Idle
I'm Outta Time
Supersonic
Don't Look Back In Anger
Falling Down

General
ID : 1 (0x1)
Complete name : G:\UP\Mix\Oasis - Live at Black Island Studios 2008\Oasis - Live at Black Island Studios 2008.ts
Format
: MPEG-TS
File size
: 3.54 GiB
Duration
: 59mn 14s
Overall bit rate mode : Variable
Overall bit rate : 8 546 Kbps

Video
ID : 1279 (0x4FF)
Menu ID
: 106 (0x6A)
Format
: AVC
Format/Info
: Advanced Video Codec
Format profile : [email protected]
Format settings, CABAC : Yes
Format settings, ReFrames : 3 frames
Codec ID
: 27
Duration
: 59mn 13s
Bit rate
: 7 736 Kbps
Width
: 1 920 pixels
Height
: 1 080 pixels
Display aspect ratio : 16:9
Frame rate
: 25.000 fps
Standard
: Component
Color space
: YUV
Chroma subsampling

: 4:2:0
Bit depth
: 8 bits
Scan type
: Interlaced
Scan order
: Top Field First
Bits/(Pixel*Frame)

: 0.149
Stream size
: 3.20 GiB (91%)
Color primaries : BT.709
Transfer characteristics : BT.709
Matrix coefficients

: BT.709

Audio
ID : 1283 (0x503)
Menu ID
: 106 (0x6A)
Format
: AC-3
Format/Info
: Audio Coding 3
Mode extension : CM (complete main)
Format settings, Endianness : Big
Codec ID
: 6
Duration
: 59mn 13s
Bit rate mode : Constant
Bit rate
: 384 Kbps
Channel(s)
: 2 channels
Channel positions: Front: L R
Sampling rate : 48.0 KHz
Bit depth
: 16 bits
Compression mode : Lossy
Delay relative to video : -80ms
Stream size
: 163 MiB (4%)
Language
: German

Text
ID : 1284 (0x504)-100
Menu ID
: 106 (0x6A)
Format
: Teletext
Language
: German

Menu
ID : 100 (0x64)
Menu ID
: 106 (0x6A)
Duration
: 59mn 14s
List
: 1279 (0x4FF) (AVC) / 1283 (0x503) (AC-3, German) / 1284 (0x504) ()
Language
: / German

Oasis - Live at Black Island Studios 2008 [2015, HDTV 1080i]

Oasis - Live at Black Island Studios 2008 [2015, HDTV 1080i]

Oasis - Live at Black Island Studios 2008 [2015, HDTV 1080i]

Oasis - Live at Black Island Studios 2008 [2015, HDTV 1080i]

Oasis - Live at Black Island Studios 2008 [2015, HDTV 1080i]

Oasis - Live at Black Island Studios 2008 [2015, HDTV 1080i]

All thanks go to Verue

Download Oasis - Live at Black Island Studios 2008:

DOWNLOAD LINKS
Buy Premium From My Links To Get Resumable Support & Max Speed & To Support Me

Rapidgator.net:
http://rapidgator.net/file/8065108e49466f0580ea27b5928b86fe/j24hq.O.L.a.B.I.S.2008.2015.HDTV.1080i.part1.rar.html
http://rapidgator.net/file/d557f83fded30fa210bef14dedd132d2/j24hq.O.L.a.B.I.S.2008.2015.HDTV.1080i.part2.rar.html
http://rapidgator.net/file/65562f66e8eb42373dfac68d606cd62b/j24hq.O.L.a.B.I.S.2008.2015.HDTV.1080i.part3.rar.html
http://rapidgator.net/file/f85f0e16e721a6eb8c83974ddbe7bfe4/j24hq.O.L.a.B.I.S.2008.2015.HDTV.1080i.part4.rar.html
http://rapidgator.net/file/540e9b007f3941ded325f75ebdd31ba2/j24hq.O.L.a.B.I.S.2008.2015.HDTV.1080i.part5.rar.html
http://rapidgator.net/file/5986489784e19c5fd351cb40f7bec3ed/j24hq.O.L.a.B.I.S.2008.2015.HDTV.1080i.part6.rar.html
http://rapidgator.net/file/b6bbd9a7dbeea151005ec2391193367d/j24hq.O.L.a.B.I.S.2008.2015.HDTV.1080i.part7.rar.html

Uploaded.net:
http://uploaded.net/file/2ozedtit/j24hq.O.L.a.B.I.S.2008.2015.HDTV.1080i.part1.rar
http://uploaded.net/file/u04zo4aj/j24hq.O.L.a.B.I.S.2008.2015.HDTV.1080i.part2.rar
http://uploaded.net/file/cvztoqhq/j24hq.O.L.a.B.I.S.2008.2015.HDTV.1080i.part3.rar
http://uploaded.net/file/s71zjxwq/j24hq.O.L.a.B.I.S.2008.2015.HDTV.1080i.part4.rar
http://uploaded.net/file/sy2o47dy/j24hq.O.L.a.B.I.S.2008.2015.HDTV.1080i.part5.rar
http://uploaded.net/file/v8jgyn45/j24hq.O.L.a.B.I.S.2008.2015.HDTV.1080i.part6.rar
http://uploaded.net/file/1ahzx0kn/j24hq.O.L.a.B.I.S.2008.2015.HDTV.1080i.part7.rar

OBoom.com:
https://www.oboom.com/THGX08HF/j24hq.O.L.a.B.I.S.2008.2015.HDTV.1080i.part1.rar
https://www.oboom.com/V4I9HF0G/j24hq.O.L.a.B.I.S.2008.2015.HDTV.1080i.part2.rar
https://www.oboom.com/G8D92WR6/j24hq.O.L.a.B.I.S.2008.2015.HDTV.1080i.part3.rar
https://www.oboom.com/RVC7ULXW/j24hq.O.L.a.B.I.S.2008.2015.HDTV.1080i.part4.rar
https://www.oboom.com/RGGQYI3T/j24hq.O.L.a.B.I.S.2008.2015.HDTV.1080i.part5.rar
https://www.oboom.com/9D3AN5J1/j24hq.O.L.a.B.I.S.2008.2015.HDTV.1080i.part6.rar
https://www.oboom.com/73GAD9EN/j24hq.O.L.a.B.I.S.2008.2015.HDTV.1080i.part7.rar

Links are Interchangeable - No Password - Single Extraction
Direct Download

Tags: Island, Studios

Oasis - Live at Black Island Studios 2008 [2015, HDTV 1080i] Download via Hotfile Rapidshare Fileserve Megaupload & FileSonic, Oasis - Live at Black Island Studios 2008 [2015, HDTV 1080i] free torrent downloads included crack, serial, keygen.Oasis - Live at Black Island Studios 2008 [2015, HDTV 1080i] Fast Download via Rapidshare Hotfile Fileserve Filesonic Megaupload, Oasis - Live at Black Island Studios 2008 [2015, HDTV 1080i] Torrents and Emule Download or anything related.
Leave a Comment
Your Name:
E-Mail:
Add Comments:

Enter Code: