Stefano Bollani - Arrivano Gli Alieni (2015) {Decca}

Download Now

Stefano Bollani - Arrivano Gli Alieni (2015) {Decca}

Stefano Bollani - Arrivano Gli Alieni (2015) {Decca}
EAC 1.1 | FLAC tracks level 8 | Cue+Log+M3U | Full Scans 300dpi | 228MB + 5% Recovery
Genre: Jazz, Post-Bop

"The pianist has made solo albums before but nothing quite like this, where he not only plays concert grand but also Fender Rhodes and, on a few tracks, sings too. His exuberant style, his technical facility and his sense of fun are clear throughout, from the opening, funky Alleanza and a darkly toned, choppily-rhymed romp through Italy's most popular song Quando, Quando, Quando to Ary Barroso's Aquarela Do Brasil, the soul-jazz evergreen, Horace Silver's The Preacher and Duke Ellington's Mount Harissa, closing with the classic ballad You Don't Know What Love Is."

Track List
01. Alleanza 4:21
02. Quando, quando, quando 2:48
03. Sei la' 4:07
04. Aquarela do Brasil 3:08
05. The preacher 2:15
06. Matilda 3:33
07. El gato 3:32
08. Microchip 4:33
09. Mount Harissa 5:32
10. Aural 2:20
11. Vino vino 5:27
12. Un viaggio 1:14
13. Jurame 3:26
14. Arrivano gli alieni 3:53
15. You don't know what love is 3:31

Stefano Bollani - Fender Rhodes, piano, vocals

Produced by Stefano Bollani

Exact Audio Copy V1.1 from 23. June 2015

EAC extraction logfile from 17. September 2015, 17:36

Stefano Bollani / Arrivano gli alieni

Used drive : ASUS BC-12D2HT Adapter: 1 ID: 0

Read mode : Secure
Utilize accurate stream : Yes
Defeat audio cache : Yes
Make use of C2 pointers : No

Read offset correction

: 6
Overread into Lead-In and Lead-Out : No
Fill up missing offset samples with silence : Yes
Delete leading and trailing silent blocks : No
Null samples used in CRC calculations : Yes
Used interface
: Installed external ASPI interface
Gap handling
: Appended to previous track

Used output format : User Defined Encoder
Selected bitrate : 1024 kBit/s
Quality : High
Add ID3 tag : No
Command line compressor : C:\Program Files (x86)\Exact Audio Copy\FLAC\FLAC.EXE
Additional command line options : -8 -V -T "ARTIST=%artist%" -T "TITLE=%title%" -T "ALBUM=%albumtitle%" -T "DATE=%year%" -T "TRACKNUMBER=%tracknr%" -T "GENRE=%genre%" -T "PERFORMER=%albuminterpret%" -T "COMPOSER=%composer%" %haslyrics%--tag-from-file=LYRICS="%lyricsfile%"%haslyrics% -T "ALBUMARTIST=%albumartist%" -T "DISCNUMBER=%cdnumber%" -T "TOTALDISCS=%totalcds%" -T "TOTALTRACKS=%numtracks%" -T "COMMENT=%comment%" %source% -o %dest%

TOC of the extracted CD Track | Start | Length | Start sector | End sector
--1 | 0:00.00 | 4:22.10 | 0 | 19659 2 | 4:22.10 | 2:50.02 | 19660 | 32411 3 | 7:12.12 | 4:07.68 | 32412 | 51004 4 | 11:20.05 | 3:07.68 | 51005 | 65097 5 | 14:27.73 | 2:16.71 | 65098 | 75368 6 | 16:44.69 | 3:33.38 | 75369 | 91381 7 | 20:18.32 | 3:29.66 | 91382 | 107122 8 | 23:48.23 | 4:35.05 | 107123 | 127752 9 | 28:23.28 | 5:33.20 | 127753 | 152747
10 | 33:56.48 | 2:21.05 | 152748 | 163327
11 | 36:17.53 | 5:28.09 | 163328 | 187936
12 | 41:45.62 | 1:13.26 | 187937 | 193437
13 | 42:59.13 | 3:25.02 | 193438 | 208814
14 | 46:24.15 | 3:54.25 | 208815 | 226389
15 | 50:18.40 | 3:30.35 | 226390 | 242174

Track 1 Filename C:\Steno\01. Stefano Bollani - Alleanza.wav Pre-gap length 0:00:02.00 Peak level 99.1 %
Extraction speed 3.6 X
Track quality 100.0 %
Test CRC 784041CF
Copy CRC 784041CF
Track not present in AccurateRip database
Copy OK

Track 2 Filename C:\Steno\02. Stefano Bollani - Quando, quando, quando.wav Pre-gap length 0:00:02.04 Peak level 93.8 %
Extraction speed 3.7 X
Track quality 100.0 %
Test CRC 1EE046C1
Copy CRC 1EE046C1
Track not present in AccurateRip database
Copy OK

Track 3 Filename C:\Steno\03. Stefano Bollani - Sei la'.wav Pre-gap length 0:00:02.97 Peak level 93.9 %
Extraction speed 4.2 X
Track quality 100.0 %
Test CRC 71A79B70
Copy CRC 71A79B70
Track not present in AccurateRip database
Copy OK

Track 4 Filename C:\Steno\04. Stefano Bollani - Aquarela do Brasil.wav Pre-gap length 0:00:01.85 Peak level 93.8 %
Extraction speed 3.7 X
Track quality 99.9 %
Test CRC 93233A58
Copy CRC 93233A58
Track not present in AccurateRip database
Copy OK

Track 5 Filename C:\Steno\05. Stefano Bollani - The preacher.wav Pre-gap length 0:00:02.14 Peak level 94.2 %
Extraction speed 4.2 X
Track quality 100.0 %
Test CRC 5278B169
Copy CRC 5278B169
Track not present in AccurateRip database
Copy OK

Track 6 Filename C:\Steno\06. Stefano Bollani - Matilda.wav Pre-gap length 0:00:02.64 Peak level 94.6 %
Extraction speed 4.8 X
Track quality 100.0 %
Test CRC 855F5FAD
Copy CRC 855F5FAD
Track not present in AccurateRip database
Copy OK

Track 7 Filename C:\Steno\07. Stefano Bollani - El gato.wav Peak level 95.6 %
Extraction speed 4.9 X
Track quality 100.0 %
Test CRC 4B95E40D
Copy CRC 4B95E40D
Track not present in AccurateRip database
Copy OK

Track 8 Filename C:\Steno\08. Stefano Bollani - Microchip.wav Pre-gap length 0:00:00.32 Peak level 96.4 %
Extraction speed 5.4 X
Track quality 100.0 %
Test CRC B3862574
Copy CRC B3862574
Track not present in AccurateRip database
Copy OK

Track 9 Filename C:\Steno\09. Stefano Bollani - Mount Harissa.wav Pre-gap length 0:00:02.77 Peak level 97.4 %
Extraction speed 5.8 X
Track quality 100.0 %
Test CRC 3D666242
Copy CRC 3D666242
Track not present in AccurateRip database
Copy OK

Track 10 Filename C:\Steno\10. Stefano Bollani - Aural.wav Pre-gap length 0:00:02.21 Peak level 96.2 %
Extraction speed 4.3 X
Track quality 99.9 %
Test CRC A6E61C81
Copy CRC A6E61C81
Track not present in AccurateRip database
Copy OK

Track 11 Filename C:\Steno\11. Stefano Bollani - Vino vino.wav Pre-gap length 0:00:01.96 Peak level 95.1 %
Extraction speed 6.3 X
Track quality 100.0 %
Test CRC 917056EB
Copy CRC 917056EB
Track not present in AccurateRip database
Copy OK

Track 12 Filename C:\Steno\12. Stefano Bollani - Un viaggio.wav Pre-gap length 0:00:02.66 Peak level 93.9 %
Extraction speed 3.2 X
Track quality 99.8 %
Test CRC 920A8584
Copy CRC 920A8584
Track not present in AccurateRip database
Copy OK

Track 13 Filename C:\Steno\13. Stefano Bollani - Jurame.wav Pre-gap length 0:00:00.50 Peak level 93.8 %
Extraction speed 6.3 X
Track quality 100.0 %
Test CRC 3D5B542B
Copy CRC 3D5B542B
Track not present in AccurateRip database
Copy OK

Track 14 Filename C:\Steno\14. Stefano Bollani - Arrivano gli alieni.wav Pre-gap length 0:00:00.34 Peak level 94.0 %
Extraction speed 6.5 X
Track quality 100.0 %
Test CRC B7EE0BCC
Copy CRC B7EE0BCC
Track not present in AccurateRip database
Copy OK

Track 15 Filename C:\Steno\15. Stefano Bollani - You don't know what love is.wav Pre-gap length 0:00:02.26 Peak level 96.3 %
Extraction speed 5.6 X
Track quality 99.9 %
Test CRC 1DE821A9
Copy CRC 1DE821A9
Track not present in AccurateRip database
Copy OK

None of the tracks are present in the AccurateRip database

No errors occurred

End of status report

- CUETools DB Plugin V2.1.6

[CTDB TOCID: GppDRllkGYDksiqiNFKEXBG0FZY-] disk not present in database
Submit result: GppDRllkGYDksiqiNFKEXBG0FZY- has been uploaded

==== Log checksum A1AD85598624656F0C883C8A8E9E948BEC597D1BA6199F46AAD406B442F2C2EE ====

Analyzed: Stefano Bollani / Arrivano gli alieni

DR Peak RMS Duration Track

DR7 -0.08 dB -7.96 dB 4:22 01-Alleanza
DR7 -0.55 dB -9.37 dB 2:50 02-Quando, quando, quando
DR6 -0.54 dB -8.17 dB 4:08 03-Sei la'
DR7 -0.55 dB -9.64 dB 3:08 04-Aquarela do Brasil
DR6 -0.51 dB -8.04 dB 2:17 05-The preacher
DR6 -0.48 dB -9.24 dB 3:34 06-Matilda
DR6 -0.38 dB -9.23 dB 3:30 07-El gato
DR9 -0.31 dB -12.33 dB 4:35 08-Microchip
DR8 -0.22 dB -11.70 dB 5:33 09-Mount Harissa
DR8 -0.33 dB -13.31 dB 2:21 10-Aural
DR6 -0.43 dB -9.20 dB 5:28 11-Vino vino
DR8 -0.54 dB -11.73 dB 1:13 12-Un viaggio
DR7 -0.55 dB -9.56 dB 3:25 13-Jurame
DR7 -0.54 dB -9.19 dB 3:54 14-Arrivano gli alieni
DR8 -0.33 dB -10.79 dB 3:30 15-You don't know what love is

Number of tracks: 15
Official DR value: DR7

Samplerate: 44100 Hz
Channels: 2
Bits per sample: 16
Bitrate: 427 kbps
Codec: FLAC

Stefano Bollani - Arrivano Gli Alieni (2015) {Decca}

Stefano Bollani - Arrivano Gli Alieni (2015) {Decca}

Stefano Bollani - Arrivano Gli Alieni (2015) {Decca}

Rip by maccio


DOWNLOAD LINKS
Buy Premium From My Links To Get Resumable Support & Max Speed & To Support Me


Links are Interchangeable - No Password - Single Extraction
Direct Download

Tags: Stefano, Bollani, Arrivano, Alieni

Stefano Bollani - Arrivano Gli Alieni (2015) {Decca} Download via Hotfile Rapidshare Fileserve Megaupload & FileSonic, Stefano Bollani - Arrivano Gli Alieni (2015) {Decca} free torrent downloads included crack, serial, keygen.Stefano Bollani - Arrivano Gli Alieni (2015) {Decca} Fast Download via Rapidshare Hotfile Fileserve Filesonic Megaupload, Stefano Bollani - Arrivano Gli Alieni (2015) {Decca} Torrents and Emule Download or anything related.
Leave a Comment
Your Name:
E-Mail:
Add Comments:

Enter Code: