Leon Spencer - Bad Walking Woman (1972) {2014 Japan Rare Groove Funk Best Collection 1000}

Download Now


Leon Spencer - Bad Walking Woman (1972) {2014 Japan Rare Groove Funk Best Collection 1000}
Leon Spencer - Bad Walking Woman (1972) {2014 Japan Rare Groove Funk Best Collection 1000}
EAC rip (secure mode) | FLAC (tracks)+CUE+LOG -> 235 Mb | MP3 @320 -> 90 Mb
Full Artwork @ 600 dpi (png) -> 185 Mb | 5% repair rar
© 2014 Prestige / Concord / Universal Music Japan | UCCO-90347
Jazz / Jazz Funk / Soul Jazz / Organ Hammond B-3

"Supremely heavy work from organist Leon Spencer - one of his classic jazz funk sessions for Prestige Records, and a record that shows him opening up his sound a bit more than before! The album has Spencer working in a few different lineups - some with small groups that feature Melvin Sparks on guitar and Idris Muhammad on drums - others with some slightly larger instrumentation and even a bit of strings, used in a sophisticatedly soulful style that reminds us a bit of CTI or Kudu backings of the time!"

Leon Spencer - Bad Walking Woman (1972) {2014 Japan Rare Groove Funk Best Collection 1000}


Personnel:
Leon Spencer-organ
Hubert Laws-flute,piccolo flute (4,6,7)
Buzz Brauer-flute,English horn,oboe (3,4,6,7)
Sonny Fortune-alto saxophone (5)
Dave Hubbard-tenor sax (1,5)
Virgil Jones-trumpet (5)
Melvin Sparks-guitar (2,4,5)
Joe Beck-guitar (3,6,7)
Idris Muhammad-drums
Buddy Caldwell-congas (4-6)
Unidentified Strings Section (3,4,6,7)

Leon Spencer - Bad Walking Woman (1972) {2014 Japan Rare Groove Funk Best Collection 1000}


tracklist:
01 - Hip Shaker
02 - Down On Dowling Street
03 - In Search Of Love
04 - If You Were Me And I Were You
05 - Bad Walking Woman
06 - When My Love Has Gone
07 - When Dreams Start To Fade

Exact Audio Copy V1.1 from 23. June 2015

EAC extraction logfile from 9. August 2015, 13:24

Leon Spencer / Bad Walking Woman

Used drive : ATAPI iHAS124 B Adapter: 2 ID: 0

Read mode : Secure
Utilize accurate stream : Yes
Defeat audio cache : Yes
Make use of C2 pointers : No

Read offset correction

: 6
Overread into Lead-In and Lead-Out : No
Fill up missing offset samples with silence : Yes
Delete leading and trailing silent blocks : No
Null samples used in CRC calculations : Yes
Used interface
: Installed external ASPI interface
Gap handling
: Appended to previous track

Used output format : User Defined Encoder
Selected bitrate : 1024 kBit/s
Quality : High
Add ID3 tag : No
Command line compressor : C:\Program Files (x86)\FLAC Frontend\tools\flac.exe
Additional command line options : -8 -V -T "ARTIST=%artist%" -T "TITLE=%title%" -T "ALBUM=%albumtitle%" -T "DATE=%year%" -T "TRACKNUMBER=%tracknr%" -T "TOTALTRACKS=%numtracks%" -T "GENRE=%genre%" -T "ALBUMARTIST=%albumartist%" -T "ALBUM ARTIST=%albumartist%" -T "COMMENT=EAC Secure Mode, Test & Copy, AccurateRip, FLAC -8" %source%

TOC of the extracted CD Track | Start | Length | Start sector | End sector
--1 | 0:00.00 | 3:04.56 | 0 | 13855 2 | 3:04.56 | 5:00.42 | 13856 | 36397 3 | 8:05.23 | 4:59.51 | 36398 | 58873 4 | 13:04.74 | 6:03.12 | 58874 | 86110 5 | 19:08.11 | 5:00.72 | 86111 | 108682 6 | 24:09.08 | 6:17.36 | 108683 | 136993 7 | 30:26.44 | 7:41.69 | 136994 | 171637

Track 1 Filename M:\_EAC\Leon Spencer - Bad Walking Woman (1972) [FLAC] {2014 Japan Rare Groove Funk Best Collection 1000}\01 - Hip Shaker.wav Pre-gap length 0:00:02.00 Peak level 99.7 %
Extraction speed 3.2 X
Track quality 100.0 %
Test CRC BD33ECA7
Copy CRC BD33ECA7
Accurately ripped (confidence 1) [353E36CC] (AR v2)
Copy OK

Track 2 Filename M:\_EAC\Leon Spencer - Bad Walking Woman (1972) [FLAC] {2014 Japan Rare Groove Funk Best Collection 1000}\02 - Down On Dowling Street.wav Pre-gap length 0:00:02.69 Peak level 99.7 %
Extraction speed 3.9 X
Track quality 100.0 %
Test CRC 5A659744
Copy CRC 5A659744
Accurately ripped (confidence 1) [11F3E8AE] (AR v2)
Copy OK

Track 3 Filename M:\_EAC\Leon Spencer - Bad Walking Woman (1972) [FLAC] {2014 Japan Rare Groove Funk Best Collection 1000}\03 - In Search Of Love.wav Pre-gap length 0:00:02.46 Peak level 99.7 %
Extraction speed 4.3 X
Track quality 100.0 %
Test CRC AD0C5B66
Copy CRC AD0C5B66
Accurately ripped (confidence 1) [77C82B94] (AR v2)
Copy OK

Track 4 Filename M:\_EAC\Leon Spencer - Bad Walking Woman (1972) [FLAC] {2014 Japan Rare Groove Funk Best Collection 1000}\04 - If You Were Me And I Were You.wav Pre-gap length 0:00:05.28 Peak level 99.7 %
Extraction speed 4.9 X
Track quality 100.0 %
Test CRC 428234EB
Copy CRC 428234EB
Accurately ripped (confidence 1) [D1EDA432] (AR v2)
Copy OK

Track 5 Filename M:\_EAC\Leon Spencer - Bad Walking Woman (1972) [FLAC] {2014 Japan Rare Groove Funk Best Collection 1000}\05 - Bad Walking Woman.wav Pre-gap length 0:00:02.67 Peak level 99.7 %
Extraction speed 5.1 X
Track quality 100.0 %
Test CRC 078633E4
Copy CRC 078633E4
Accurately ripped (confidence 1) 618B7F9 (AR v2)
Copy OK

Track 6 Filename M:\_EAC\Leon Spencer - Bad Walking Woman (1972) [FLAC] {2014 Japan Rare Groove Funk Best Collection 1000}\06 - When My Love Has Gone.wav Pre-gap length 0:00:05.17 Peak level 99.7 %
Extraction speed 4.8 X
Track quality 99.9 %
Test CRC 86D124F0
Copy CRC 86D124F0
Accurately ripped (confidence 1) [2FC0EB76] (AR v2)
Copy OK

Track 7 Filename M:\_EAC\Leon Spencer - Bad Walking Woman (1972) [FLAC] {2014 Japan Rare Groove Funk Best Collection 1000}\07 - When Dreams Start To Fade.wav Pre-gap length 0:00:07.63 Peak level 99.7 %
Extraction speed 6.2 X
Track quality 100.0 %
Test CRC 8D36FE6D
Copy CRC 8D36FE6D
Accurately ripped (confidence 1) [8F20DB70] (AR v2)
Copy OK

All tracks accurately ripped

No errors occurred

End of status report

==== Log checksum 1F1B52EA397DD52584926386656174C684AB843AC82DC92873F11F8C700A6BFA ====

Leon Spencer - Bad Walking Woman (1972) {2014 Japan Rare Groove Funk Best Collection 1000}

Leon Spencer - Bad Walking Woman (1972) {2014 Japan Rare Groove Funk Best Collection 1000}

DOWNLOAD LINKS
Buy Premium From My Links To Get Resumable Support & Max Speed & To Support Me


Links are Interchangeable - No Password - Single Extraction
Direct Download

Tags: Spencer, Walking, Groove, Collection

Leon Spencer - Bad Walking Woman (1972) {2014 Japan Rare Groove Funk Best Collection 1000} Download via Hotfile Rapidshare Fileserve Megaupload & FileSonic, Leon Spencer - Bad Walking Woman (1972) {2014 Japan Rare Groove Funk Best Collection 1000} free torrent downloads included crack, serial, keygen.Leon Spencer - Bad Walking Woman (1972) {2014 Japan Rare Groove Funk Best Collection 1000} Fast Download via Rapidshare Hotfile Fileserve Filesonic Megaupload, Leon Spencer - Bad Walking Woman (1972) {2014 Japan Rare Groove Funk Best Collection 1000} Torrents and Emule Download or anything related.
Leave a Comment
Your Name:
E-Mail:
Add Comments:

Enter Code: