Grant Green - Goin' West (1962) {Blue Note RVG Remaster 2004}

Download Now


Grant Green - Goin' West (1962) {Blue Note RVG Remaster 2004}
Grant Green - Goin' West (1962) {Blue Note RVG Remaster 2004}
EAC rip (secure mode) | FLAC (tracks)+CUE+LOG -> 224 Mb | MP3 @320 -> 81 Mb
Full Artwork @ 300 dpi (jpg) -> 12 Mb | 5% repair rar | 24-bit remaster
© 2004 Blue Note / Capitol / EMI | 7243 5 95962 2 8
Jazz / Hard Bop / Soul Jazz / Guitar

"A beautiful stripped-down session that was recorded in the mid 60s, but not issued until the end of the decade, for some strange reason! Grant Green plays guitar in a laidback quartet with Herbie Hancock on piano, Reggie Workman on bass, and Billy Higgins on drums - all working wonderfully together, in long spiralling lines that are filled with soul and a gentle, easy groove. The set is an odd mix of compositions with a "western" theme - like "I Can't Stop Loving You", "Wagon Wheels", and "Tumbling Tumbleweeds" - but the players more than manage to make the session swing way past the origins of the material! Very tough to find, but an essential addition to any Grant Green collection!"

Grant Green - Goin' West (1962) {Blue Note RVG Remaster 2004}


Personnel:
Grant Green - guitar
Herbie Hancock - piano
Reggie Workman - bass
Billy Higgins - drums

Grant Green - Goin' West (1962) {Blue Note RVG Remaster 2004}


tracklist:
01 - On Top Of Old Smokey
02 - I Can't Stop Loving You
03 - Wagon Wheels
04 - Red River Valley
05 - Tumbling Tumbleweeds

Exact Audio Copy V1.1 from 23. June 2015

EAC extraction logfile from 5. October 2015, 8:32

Grant Green / Goin' West

Used drive : TSSTcorpCDDVDW SE-208DB Adapter: 7 ID: 0

Read mode : Secure
Utilize accurate stream : Yes
Defeat audio cache : Yes
Make use of C2 pointers : No

Read offset correction

: 6
Overread into Lead-In and Lead-Out : No
Fill up missing offset samples with silence : Yes
Delete leading and trailing silent blocks : No
Null samples used in CRC calculations : Yes
Used interface
: Installed external ASPI interface
Gap handling
: Appended to previous track

Used output format : User Defined Encoder
Selected bitrate : 1024 kBit/s
Quality : High
Add ID3 tag : No
Command line compressor : C:\Program Files (x86)\FLAC Frontend\tools\flac.exe
Additional command line options : -8 -V -T "ARTIST=%artist%" -T "TITLE=%title%" -T "ALBUM=%albumtitle%" -T "DATE=%year%" -T "TRACKNUMBER=%tracknr%" -T "TOTALTRACKS=%numtracks%" -T "GENRE=%genre%" -T "ALBUMARTIST=%albumartist%" -T "ALBUM ARTIST=%albumartist%" -T "COMMENT=EAC Secure Mode, Test & Copy, AccurateRip, FLAC -8" %source%

TOC of the extracted CD Track | Start | Length | Start sector | End sector
--1 | 0:00.00 | 7:04.15 | 0 | 31814 2 | 7:04.15 | 3:26.32 | 31815 | 47296 3 | 10:30.47 | 6:22.74 | 47297 | 76020 4 | 16:53.46 | 6:05.71 | 76021 | 103466 5 | 22:59.42 | 11:05.02 | 103467 | 153343

Track 1 Filename M:\_EAC\Grant Green - Goin' West (1962) [FLAC] {Blue Note RVG 2004}\01 - On Top Of Old Smokey.wav Pre-gap length 0:00:02.00 Peak level 97.9 %
Extraction speed 1.4 X
Track quality 100.0 %
Test CRC ADDEB116
Copy CRC ADDEB116
Accurately ripped (confidence 12) [008759B0] (AR v2)
Copy OK

Track 2 Filename M:\_EAC\Grant Green - Goin' West (1962) [FLAC] {Blue Note RVG 2004}\02 - I Can't Stop Loving You.wav Pre-gap length 0:00:01.71 Peak level 91.4 %
Extraction speed 1.3 X
Track quality 99.9 %
Test CRC F46789D3
Copy CRC F46789D3
Accurately ripped (confidence 12) [259B380C] (AR v2)
Copy OK

Track 3 Filename M:\_EAC\Grant Green - Goin' West (1962) [FLAC] {Blue Note RVG 2004}\03 - Wagon Wheels.wav Pre-gap length 0:00:02.18 Peak level 97.9 %
Extraction speed 1.7 X
Track quality 100.0 %
Test CRC 3730F415
Copy CRC 3730F415
Accurately ripped (confidence 12) [5EBE9F75] (AR v2)
Copy OK

Track 4 Filename M:\_EAC\Grant Green - Goin' West (1962) [FLAC] {Blue Note RVG 2004}\04 - Red River Valley.wav Pre-gap length 0:00:02.06 Peak level 97.9 %
Extraction speed 1.9 X
Track quality 100.0 %
Test CRC 06AB422C
Copy CRC 06AB422C
Accurately ripped (confidence 12) [A4A07AF9] (AR v2)
Copy OK

Track 5 Filename M:\_EAC\Grant Green - Goin' West (1962) [FLAC] {Blue Note RVG 2004}\05 - Tumbling Tumbleweeds.wav Pre-gap length 0:00:02.11 Peak level 97.9 %
Extraction speed 2.2 X
Track quality 100.0 %
Test CRC E1BFD3B7
Copy CRC E1BFD3B7
Accurately ripped (confidence 12) [F6B7CCE3] (AR v2)
Copy OK

All tracks accurately ripped

No errors occurred

End of status report

==== Log checksum CE89DDF655FDB358EF5235FA3AF2F71F49CCDE67794A58BBA803C2B510A37C96 ====

Grant Green - Goin' West (1962) {Blue Note RVG Remaster 2004}


DOWNLOAD LINKS
Buy Premium From My Links To Get Resumable Support & Max Speed & To Support Me


Links are Interchangeable - No Password - Single Extraction
Direct Download

Tags: Remaster

Grant Green - Goin' West (1962) {Blue Note RVG Remaster 2004} Download via Hotfile Rapidshare Fileserve Megaupload & FileSonic, Grant Green - Goin' West (1962) {Blue Note RVG Remaster 2004} free torrent downloads included crack, serial, keygen.Grant Green - Goin' West (1962) {Blue Note RVG Remaster 2004} Fast Download via Rapidshare Hotfile Fileserve Filesonic Megaupload, Grant Green - Goin' West (1962) {Blue Note RVG Remaster 2004} Torrents and Emule Download or anything related.
Leave a Comment
Your Name:
E-Mail:
Add Comments:

Enter Code: