Ronnie Laws - Every Generation (1980) [2005, Reissue]

Download Now

Ronnie Laws - Every Generation (1980) [2005, Reissue]

Ronnie Laws - Every Generation (1980) [2005, Reissue]
R&B, Funk/Soul, Jazz-Funk | EAC Rip | FLAC, Tracks+CUE + LOG + Full Artwork-600dpi (JPEG) | 34:52 Min | 283,55 Mb
Label: EMI Records (EU) / Blue Note Records (USA) | Released: 2005, June, 20

"
Here is a worthwhile re-issue of a classic jazz-fusion release. The title track is just a sublime piece of midtempo magic, the kind of track Robbie Vincent would play on his much missed Radio 1 show (the music for a candlelight dinner section). Ronnie gets to sing on this track. Elsewhere we get some jazz-funk instrumentals the best to my mind being the moody, downtempo "Thoughts and memories" with ronnie's soprano sax to the fore atop dreamy fendor rhodes. "Love's victory" is an attractive ballad with Ronnie singing again. With sidesmen and women of the calibre of Joe Sample, Patrice Rushen, Larry Dunn and Miki Howard helping out, he can't really go wrong, can he?
"

Ronnie Laws - Every Generation (1980) [2005, Reissue]

Ronnie Laws - Every Generation (1980) [2005, Reissue]


Release of the album: 1980 [LP United Artists Records, Cat.# LT-1001, USA]
Release of this CD: 2005, June, 20 [CD EMI Records (EU), Cat.# 7243 4 77547 2 2 / UPC: 724347754722]
℗ 2005 The Copyright in this sound recording is owned by Blue Note Records. © 2005 Blue Note Records
Blue Note is a registered trademark of Capitol Records, Inc.
Marketed and distributed by EMI
Printed in the EU


Backing Vocals - Alexandra Brown, Eloise Laws, Jean Terrell Thompson, Miki Howard, Ronnie Laws
Bass - Nathanial Phillips
Cello - Glen Grab, Ronald Cooper
Composed By - Ronnie Laws (tracks: 1 to 6, 8)
Engineer - Chris Brunt
Flute - Hubert Laws
Keyboards - Bobby Lyle, Joe Sample, Larry Dunn, Patrice Rushen, Ronnie Foster
Mastered By - Ken Perry
Producer - Ronnie Laws
Producer [Assistant] - William Jeffrey
Reissue Producer - Michael Cuscuna
Viola - Don Neufield, Jim Ross
Violin - Frank Foster, Gina Kronstandt, Gordon Marron, Haim Shtrum, Jerome Webster, Michelle Grab, Pam Gates
Violin, Concertmaster - William H. Henderson


Tracklist:

01. "Young Child" (04:39)
(Ronnie Laws)
02. "Never Get Back To Houston" (03:03)
(Ronnie Laws)
03. "Every Generation" (05:50)
(Ronnie Laws)
04. "Tomorrow" (03:45)
(Ronnie Laws)
05. "O.T.B.A. Law (Outta Be A Law)" (04:42)
(Ronnie Laws)
06. "Love's Victory" (04:26)
(Ronnie Laws, Charlotte Stroud)
07. "Thoughts & Memories" (04:21)
(William Jeffrey)
08. "As One" (04:07)
(Ronnie Laws)

Exact Audio Copy V0.99 prebeta 5 from 4. May 2009

EAC extraction logfile from 28. August 2010, 15:10

Ronnie Laws / Every Generation

Used drive : Optiarc DVD RW AD-5200A Adapter: 1 ID: 0

Read mode : Secure
Utilize accurate stream : Yes
Defeat audio cache : Yes
Make use of C2 pointers : No

Read offset correction

: 48
Overread into Lead-In and Lead-Out : No
Fill up missing offset samples with silence : Yes
Delete leading and trailing silent blocks : No
Null samples used in CRC calculations : No
Used interface
: Native Win32 interface for Win NT & 2000
Gap handling
: Appended to previous track

Used output format : User Defined Encoder
Selected bitrate : 128 kBit/s
Quality : High
Add ID3 tag : No
Command line compressor : C:\Program Files\FLAC\flac.exe
Additional command line options : -5 -V -T "ARTIST=%a" -T "TITLE=%t" -T "ALBUM=%g" -T "DATE=%y" -T "TRACKNUMBER=%n" -T "GENRE=%m" -T "COMMENT=Ripped by andygrakoff aka yetiisyou" %s

TOC of the extracted CD Track | Start | Length | Start sector | End sector
--1 | 0:00.00 | 4:38.46 | 0 | 20895 2 | 4:38.46 | 3:03.05 | 20896 | 34625 3 | 7:41.51 | 5:49.45 | 34626 | 60845 4 | 13:31.21 | 3:45.06 | 60846 | 77726 5 | 17:16.27 | 4:42.04 | 77727 | 98880 6 | 21:58.31 | 4:25.57 | 98881 | 118812 7 | 26:24.13 | 4:21.31 | 118813 | 138418 8 | 30:45.44 | 4:07.18 | 138419 | 156961 9 | 37:24.62 | 36:33.13 | 168362 | 332849

Track 1 Filename E:\!Rips\Ronnie Laws - Every Generation (1979 - 2005 remaster) (7243 4 77547 2 2)\01 - Young Child.wav Pre-gap length 0:00:02.00 Peak level 98.8 %
Track quality 99.9 %
Test CRC 92654D60
Copy CRC 92654D60
Accurately ripped (confidence 1) [74147D62]
Copy OK

Track 2 Filename E:\!Rips\Ronnie Laws - Every Generation (1979 - 2005 remaster) (7243 4 77547 2 2)\02 - Never Get Back To Houston.wav Peak level 98.8 %
Track quality 100.0 %
Test CRC 8DE912B2
Copy CRC 8DE912B2
Accurately ripped (confidence 1) [2ED9DCC4]
Copy OK

Track 3 Filename E:\!Rips\Ronnie Laws - Every Generation (1979 - 2005 remaster) (7243 4 77547 2 2)\03 - Every Generation.wav Peak level 98.8 %
Track quality 100.0 %
Test CRC BFA02770
Copy CRC BFA02770
Accurately ripped (confidence 1) [C2DE578E]
Copy OK

Track 4 Filename E:\!Rips\Ronnie Laws - Every Generation (1979 - 2005 remaster) (7243 4 77547 2 2)\04 - Tomorrow.wav Peak level 98.8 %
Track quality 100.0 %
Test CRC 8ED31DE7
Copy CRC 8ED31DE7
Cannot be verified as accurate (confidence 1) [F322D332], AccurateRip returned [F808A43B]
Copy OK

Track 5 Filename E:\!Rips\Ronnie Laws - Every Generation (1979 - 2005 remaster) (7243 4 77547 2 2)\05 - OTBA Law.wav Peak level 98.8 %
Track quality 100.0 %
Test CRC 2D3CBA5F
Copy CRC 2D3CBA5F
Accurately ripped (confidence 1) [96831BC7]
Copy OK

Track 6 Filename E:\!Rips\Ronnie Laws - Every Generation (1979 - 2005 remaster) (7243 4 77547 2 2)\06 - Love's Victory.wav Peak level 98.8 %
Track quality 100.0 %
Test CRC EFF7BD97
Copy CRC EFF7BD97
Accurately ripped (confidence 1) [ED0EF306]
Copy OK

Track 7 Filename E:\!Rips\Ronnie Laws - Every Generation (1979 - 2005 remaster) (7243 4 77547 2 2)\07 - Thoughts and Memories.wav Peak level 98.8 %
Track quality 100.0 %
Test CRC F07D4C9F
Copy CRC F07D4C9F
Accurately ripped (confidence 1) [7DF349F8]
Copy OK

Track 8 Filename E:\!Rips\Ronnie Laws - Every Generation (1979 - 2005 remaster) (7243 4 77547 2 2)\08 - As One.wav Peak level 98.8 %
Track quality 100.0 %
Test CRC D60CB013
Copy CRC D60CB013
Accurately ripped (confidence 1) [C5F0D9B9]
Copy OK

7 track(s) accurately ripped
1 track(s) could not be verified as accurate

Some tracks could not be verified as accurate

No errors occurred

End of status report

foobar2000 1.3.7 / Dynamic Range Meter 1.1.1
log date: 2015-10-07 19:35:30

Analyzed: Ronnie Laws / Every Generation

DR Peak RMS Duration Track

DR9 -0.10 dB -10.79 dB 4:39 01-Young Child
DR10 -0.10 dB -11.12 dB 3:03 02-Never Get Back To Houston
DR9 -0.10 dB -11.83 dB 5:50 03-Every Generation
DR9 -0.10 dB -11.40 dB 3:45 04-Tomorrow
DR8 -0.10 dB -10.47 dB 4:42 05-OTBA Law
DR10 -0.10 dB -12.85 dB 4:26 06-Love's Victory
DR9 -0.10 dB -12.14 dB 4:21 07-Thoughts and Memories
DR10 -0.10 dB -12.00 dB 4:07 08-As One

Number of tracks: 8
Official DR value: DR9

Samplerate: 44100 Hz
Channels: 2
Bits per sample: 16
Bitrate: 974 kbps
Codec: FLAC

All thanks to - funky_cat & Аndy

password: BlondStyle


DOWNLOAD LINKS
Buy Premium From My Links To Get Resumable Support & Max Speed & To Support Me


Links are Interchangeable - No Password - Single Extraction
Direct Download

Tags: Ronnie, Generation, Reissue

Ronnie Laws - Every Generation (1980) [2005, Reissue] Download via Hotfile Rapidshare Fileserve Megaupload & FileSonic, Ronnie Laws - Every Generation (1980) [2005, Reissue] free torrent downloads included crack, serial, keygen.Ronnie Laws - Every Generation (1980) [2005, Reissue] Fast Download via Rapidshare Hotfile Fileserve Filesonic Megaupload, Ronnie Laws - Every Generation (1980) [2005, Reissue] Torrents and Emule Download or anything related.
Leave a Comment
Your Name:
E-Mail:
Add Comments:

Enter Code: