Ketil Haugsand - Johann Sebastian Bach: Goldberg Variations, BWV 988 (2002) [Upgrade]

Download Now

Ketil Haugsand - Johann Sebastian Bach: Goldberg Variations, BWV 988 (2002) [Upgrade]

Ketil Haugsand - Johann Sebastian Bach: Goldberg Variations, BWV 988 (2002)
EAC | FLAC | Image (Cue&Log) ~ 497 Mb (incl 5%) | Mp3 (CBR320) ~ 170 Mb (incl 5%) | Scans ~ 91 Mb
Genre: Classical | Label: Simax | # PSC 1192 | Time: 01:10:52

"The title alone is enough to make the heart beat a little faster. It is not coincidental that many music lovers have just this work as a centre in their private musical universe, a piece they return to again and again, always to find something new. A set of variations which stretches the limits; old man Bach with the powers to make the variation-form a display of pure music. This release concludes Ketil Haugsand"s recordings of all Bach"s "Clavierübung" on harpsichord for Simax Classics. The two earlier releases became reference recordings over-night, and Goldberg really is the jewel of the crown. As always Haugsand"s interpretation is no scratching the surface, but taking you through to the deeper layers of this music in breathing and singing phrases, along the map drawn up by Bach."

"I purchased this disc after reading glowing reviews in gramophone and musicweb.This is easily among the elite goldberg variations on harpsichord currently available.Ketil Haugsand has produced a performance of terrific beauty in which each melodic line is lovingly played and his tempo judgement's are about perfect.I thought his recording of Bach's partitas was good but his Goldberg's are even better.The sound was balanced by top engineer Arne Akselberg and it shows.This is a recording that will endure for many years to come.

Ketil Haugsand faces stiff competition however for Lisa Crawford, David Ponsford and Orhan Memed are very recommendable as well.

There can be no clear 1st choice in the Goldberg Variations as there are so many versions to choose from but if you are looking for the best harpsichord performances then those listed above are sure to please.

Review by r.b., Amazon.com
"




Tracklist:

01. Aria (04:33)
02. Variatio 1. a I Clav. (02:17)
03. Variatio 2. a I Clav. (01:30)
04. Variatio 3. Canone all' Unisuono. a I Clav. (01:50)
05. Variatio 4. a I Clav. (00:59)
06. Variatio 5. a I o vero 2 Clav. (01:20)
07. Variatio 6. Canone alla Seconda. a I Clav. (01:26)
08. Variatio 7. a I o vero 2 Clav. al tempo di Giga (01:23)
09. Variatio 8. a 2 Clav. (01:45)
10. Variatio 9. Canone alla Terza. a I Clav. (02:10)
11. Variatio 10. Fughetta. a I Clav. (01:29)
12. Variatio 11. a 2 Clav. (02:04)
13. Variatio 12. Canone alla Quarta. a I Clav. (02:34)
14. Variatio 13. a 2 Clav. (03:36)
15. Variatio 14. a 2 Clav. (02:15)
16. Variatio 15. Canone alla Quinta. a I Clav. (04:42)
17. Variatio 16. Ouverture. a I Clav. (02:38)
18. Variatio 17. a 2 clav. (01:52)
19. Variatio 18. Canone alla Sexta. a I Clav.(01:18)
20. Variatio 19. a I Clav. (00:58)
21. Variatio 20. a 2 Clav. (02:11)
22. Variatio 21. Canone alla Settima (02:09)
23. Variatio 22. a I Clav. (01:05)
24. Variatio 23. a 2 Clav. (01:40)
25. Variatio 24. Canone all' Ottava. a I Clav. (02:30)
26. Variatio 25. a 2 Clav. (07:17)
27. Variatio 26. a 2 Clav. (01:36)
28. Variatio 27. Canona alla Nona. a 2 Clav. (01:29)
29. Variatio 28. a 2 Clav. (01:57)
30. Variatio 29. a I o vero 2 Clav. (01:36)
31. Variatio 30. Quodlibet. a I Clav. (01:50)
32. Aria (02:40)


Exact Audio Copy V1.0 beta 3 from 29. August 2011

EAC extraction logfile from 18. May 2014, 15:46

Ketil Haugsand / Goldberg Variations, BWV 988

Used drive : ASUS DRW-22B2L b Adapter: 3 ID: 5

Read mode : Secure
Utilize accurate stream : Yes
Defeat audio cache : Yes
Make use of C2 pointers : No

Read offset correction

: 6
Overread into Lead-In and Lead-Out : No
Fill up missing offset samples with silence : Yes
Delete leading and trailing silent blocks : No
Null samples used in CRC calculations : Yes
Used interface
: Native Win32 interface for Win NT & 2000

Used output format : User Defined Encoder
Selected bitrate : 128 kBit/s
Quality : High
Add ID3 tag : No
Command line compressor : C:\Program Files\Exact Audio Copy\Flac\flac.exe
Additional command line options : -V -8 -T "Date=%year%" -T "Genre=%genre%" -T "Composer=%composer%" %source%

TOC of the extracted CD Track | Start | Length | Start sector | End sector
--1 | 0:00.00 | 4:33.64 | 0 | 20538 2 | 4:33.64 | 2:17.26 | 20539 | 30839 3 | 6:51.15 | 1:30.30 | 30840 | 37619 4 | 8:21.45 | 1:50.37 | 37620 | 45906 5 | 10:12.07 | 0:59.15 | 45907 | 50346 6 | 11:11.22 | 1:20.46 | 50347 | 56392 7 | 12:31.68 | 1:26.36 | 56393 | 62878 8 | 13:58.29 | 1:23.03 | 62879 | 69106 9 | 15:21.32 | 1:45.19 | 69107 | 77000
10 | 17:06.51 | 2:10.37 | 77001 | 86787
11 | 19:17.13 | 1:29.08 | 86788 | 93470
12 | 20:46.21 | 2:04.11 | 93471 | 102781
13 | 22:50.32 | 2:34.66 | 102782 | 114397
14 | 25:25.23 | 3:36.55 | 114398 | 130652
15 | 29:02.03 | 2:15.09 | 130653 | 140786
16 | 31:17.12 | 4:42.37 | 140787 | 161973
17 | 35:59.49 | 2:38.11 | 161974 | 173834
18 | 38:37.60 | 1:52.06 | 173835 | 182240
19 | 40:29.66 | 1:18.41 | 182241 | 188131
20 | 41:48.32 | 0:58.07 | 188132 | 192488
21 | 42:46.39 | 2:11.06 | 192489 | 202319
22 | 44:57.45 | 2:09.74 | 202320 | 212068
23 | 47:07.44 | 1:05.54 | 212069 | 216997
24 | 48:13.23 | 1:40.39 | 216998 | 224536
25 | 49:53.62 | 2:30.10 | 224537 | 235796
26 | 52:23.72 | 7:17.01 | 235797 | 268572
27 | 59:40.73 | 1:36.41 | 268573 | 275813
28 | 61:17.39 | 1:29.01 | 275814 | 282489
29 | 62:46.40 | 1:57.60 | 282490 | 291324
30 | 64:44.25 | 1:36.20 | 291325 | 298544
31 | 66:20.45 | 1:50.36 | 298545 | 306830
32 | 68:11.06 | 2:40.69 | 306831 | 318899

Range status and errors

Selected range Filename C:\1st0m1n\!!! Dedykuję Najpiękniejszej Polce na Całym Bezbrzeżnym Świecie !!!\Ketil Haugsand - Goldberg Variations, BWV 988.wav Peak level 96.4 %
Extraction speed 9.2 X
Range quality 100.0 %
Test CRC 1C76BAB9
Copy CRC 1C76BAB9
Copy OK

No errors occurred


AccurateRip summary

Track 1 accurately ripped (confidence 2) [CDCECA1B] (AR v2)
Track 2 accurately ripped (confidence 2) [0C3F5D37] (AR v2)
Track 3 accurately ripped (confidence 2) EA7ECD5 (AR v2)
Track 4 accurately ripped (confidence 2) [E7064C19] (AR v2)
Track 5 accurately ripped (confidence 2) [68FD8087] (AR v2)
Track 6 accurately ripped (confidence 2) [DE280DB5] (AR v2)
Track 7 accurately ripped (confidence 2) [8FBC9DE5] (AR v2)
Track 8 accurately ripped (confidence 2) [5C76984C] (AR v2)
Track 9 accurately ripped (confidence 2) [6C5AC0AA] (AR v2)
Track 10 accurately ripped (confidence 2) F41F237 (AR v2)
Track 11 accurately ripped (confidence 2) EDBFEA7 (AR v2)
Track 12 accurately ripped (confidence 2) [CBE34EA9] (AR v2)
Track 13 accurately ripped (confidence 2) [A06CC7B9] (AR v2)
Track 14 accurately ripped (confidence 2) [DA5C34DE] (AR v2)
Track 15 accurately ripped (confidence 2) [23983512] (AR v2)
Track 16 accurately ripped (confidence 2) [CCCE1143] (AR v2)
Track 17 accurately ripped (confidence 2) [38E2AB5C] (AR v2)
Track 18 accurately ripped (confidence 2) [FB510340] (AR v2)
Track 19 accurately ripped (confidence 2) [0DB5FB0F] (AR v2)
Track 20 accurately ripped (confidence 2) [67E299D0] (AR v2)
Track 21 accurately ripped (confidence 2) [AB938008] (AR v2)
Track 22 accurately ripped (confidence 2) [A5A14E60] (AR v2)
Track 23 accurately ripped (confidence 2) [FDF3FE9A] (AR v2)
Track 24 accurately ripped (confidence 2) [1ABEE14A] (AR v2)
Track 25 accurately ripped (confidence 2) [57AC129D] (AR v2)
Track 26 accurately ripped (confidence 2) [AB653F10] (AR v2)
Track 27 accurately ripped (confidence 2) [E613F019] (AR v2)
Track 28 accurately ripped (confidence 2) [CD4D7AA5] (AR v2)
Track 29 accurately ripped (confidence 2) [514B9FCB] (AR v2)
Track 30 accurately ripped (confidence 2) [F4408EDD] (AR v2)
Track 31 accurately ripped (confidence 2) [242A9A15] (AR v2)
Track 32 accurately ripped (confidence 2) [2C59B4C2] (AR v2)

All tracks accurately ripped

End of status report

- CUETools DB Plugin V2.1.5

[CTDB TOCID: nfFBUrecjkcjOvj5rkNcuhXSNus-] found
Submit result: nfFBUrecjkcjOvj5rkNcuhXSNus- has been confirmed
Track | CTDB Status
1 | (2/2) Accurately ripped
2 | (2/2) Accurately ripped
3 | (2/2) Accurately ripped
4 | (2/2) Accurately ripped
5 | (2/2) Accurately ripped
6 | (2/2) Accurately ripped
7 | (2/2) Accurately ripped
8 | (2/2) Accurately ripped
9 | (2/2) Accurately ripped
10 | (2/2) Accurately ripped
11 | (2/2) Accurately ripped
12 | (2/2) Accurately ripped
13 | (2/2) Accurately ripped
14 | (2/2) Accurately ripped
15 | (2/2) Accurately ripped
16 | (2/2) Accurately ripped
17 | (2/2) Accurately ripped
18 | (2/2) Accurately ripped
19 | (2/2) Accurately ripped
20 | (2/2) Accurately ripped
21 | (2/2) Accurately ripped
22 | (2/2) Accurately ripped
23 | (2/2) Accurately ripped
24 | (2/2) Accurately ripped
25 | (2/2) Accurately ripped
26 | (2/2) Accurately ripped
27 | (2/2) Accurately ripped
28 | (2/2) Accurately ripped
29 | (2/2) Accurately ripped
30 | (2/2) Accurately ripped
31 | (2/2) Accurately ripped
32 | (2/2) Accurately ripped

==== Log checksum 2558C1CAAE7BB4121A6C6FDFD82C7BCB27073352471627A6749CD7F4816629AE ====

foobar2000 1.2 / Dynamic Range Meter 1.1.1
log date: 2015-10-07 16:32:48

Analyzed: Ketil Haugsand / Goldberg Variations, BWV 988

DR Peak RMS Duration Track

DR12 -5.59 dB -20.14 dB 4:34 01-Aria
DR12 -6.52 dB -20.15 dB 2:17 02-Variatio 1 a 1 clav.
DR11 -4.53 dB -18.06 dB 1:30 03-Variatio 2 a 1 clav.
DR12 -3.84 dB -17.62 dB 1:50 04-Variatio 3 a 1 clav. Canone all' unisono
DR12 -1.47 dB -16.18 dB 0:59 05-Variatio 4 a 1 clav.
DR11 -5.17 dB -18.34 dB 1:21 06-Variatio 5 a 1 ovvero 2 clav.
DR12 -2.84 dB -16.58 dB 1:26 07-Variatio 6 a 1 clav. Canone alla seconda
DR13 -6.15 dB -20.80 dB 1:23 08-Variatio 7 a 1 ovvero 2 clav.
DR11 -5.81 dB -18.90 dB 1:45 09-Variatio 8 a 2 clav.
DR11 -5.74 dB -18.67 dB 2:10 10-Variations, BWV 988: Variatio 9 a 1 clav. Canone alla terza
DR12 -2.22 dB -16.81 dB 1:29 11-Variatio 10 a 1 clav. Fughetta
DR11 -5.48 dB -19.08 dB 2:04 12-Variatio 11 a 2 clav.
DR12 -3.06 dB -17.30 dB 2:35 13-Variations, BWV 988: Variatio 12 a 1 clav. Canone alla quarta
DR12 -4.47 dB -18.43 dB 3:37 14-Variatio 13 a 2 clav.
DR12 -5.91 dB -19.14 dB 2:15 15-Variatio 14 a 2 clav.
DR12 -6.50 dB -20.38 dB 4:42 16-Variatio 15 a 1 clav. Canone alla quinta
DR12 -2.14 dB -15.93 dB 2:38 17-Variatio 16 a 1 clav. Ouverture
DR11 -5.07 dB -17.87 dB 1:52 18-Variatio 17 a 2 clav.
DR12 -3.25 dB -17.42 dB 1:19 19-Variations, BWV 988: Variatio 18 a 1 clav. Canone alla sesta
DR12 -6.51 dB -19.72 dB 0:58 20-Variatio 19 a 1 clav.
DR11 -5.33 dB -19.02 dB 2:11 21-Variatio 20 a 2 clav.
DR11 -5.83 dB -18.84 dB 2:10 22-Variations, BWV 988: Variatio 21. Canone alla Settima
DR12 -4.60 dB -18.33 dB 1:06 23-Variatio 22 a 1 clav.
DR12 -4.18 dB -18.47 dB 1:41 24-Variatio 23 a 2 clav.
DR11 -4.50 dB -18.21 dB 2:30 25-Variations, BWV 988: Variatio 24 a 1 clav. Canone all' ottava
DR13 -4.30 dB -20.53 dB 7:17 26-Variatio 25 a 2 clav.
DR11 -3.92 dB -17.36 dB 1:37 27-Variatio 26 a 2 clav.
DR12 -5.36 dB -19.37 dB 1:29 28-Variations, BWV 988: Variatio 27 a 1 clav. Canona alla cona
DR11 -4.56 dB -17.67 dB 1:58 29-Variatio 28 a 2 clav.
DR12 -1.57 dB -15.50 dB 1:36 30-Variatio 29 a 1 ovvero 2 clav.
DR12 -0.31 dB -15.67 dB 1:50 31-Variatio 30 a 1 clav. Quodlibet
DR11 -5.03 dB -20.68 dB 2:41 32-Aria

Number of tracks: 32
Official DR value: DR12

Samplerate: 44100 Hz
Channels: 2
Bits per sample: 16
Bitrate: 934 kbps
Codec: FLAC

Ketil Haugsand - Johann Sebastian Bach: Goldberg Variations, BWV 988 (2002) [Upgrade]

Ketil Haugsand - Johann Sebastian Bach: Goldberg Variations, BWV 988 (2002) [Upgrade]

All thanks to original releaser - 1st0m1n
Password: designol

DOWNLOAD LINKS
Buy Premium From My Links To Get Resumable Support & Max Speed & To Support Me


Links are Interchangeable - No Password - Single Extraction
Direct Download

Tags: Haugsand, Johann, Sebastian, Goldberg, Variations, Upgrade

Ketil Haugsand - Johann Sebastian Bach: Goldberg Variations, BWV 988 (2002) [Upgrade] Download via Hotfile Rapidshare Fileserve Megaupload & FileSonic, Ketil Haugsand - Johann Sebastian Bach: Goldberg Variations, BWV 988 (2002) [Upgrade] free torrent downloads included crack, serial, keygen.Ketil Haugsand - Johann Sebastian Bach: Goldberg Variations, BWV 988 (2002) [Upgrade] Fast Download via Rapidshare Hotfile Fileserve Filesonic Megaupload, Ketil Haugsand - Johann Sebastian Bach: Goldberg Variations, BWV 988 (2002) [Upgrade] Torrents and Emule Download or anything related.
Leave a Comment
Your Name:
E-Mail:
Add Comments:

Enter Code: