Jerry Goldsmith - Forever Young: Original Soundtrack (1992) Expanded Limited Edition 2011

Download Now

Jerry Goldsmith - Forever Young: Original Soundtrack (1992) Expanded Limited Edition 2011

Jerry Goldsmith - Forever Young: Original Soundtrack (1992) Expanded Limited Edition 2011
EAC | FLAC | Image (Cue&Log) ~ 374 Mb (incl 5%) | Mp3 (CBR320) ~ 208 Mb (incl 5%) | Scans included
Genre: Soundtrack, Score | Label: La-La Land Records | # LLLCD 1182 | Time: 01:14:37

"La-La Land Records presents Expanded Archival Collection release, Jerry Goldsmith's (PATTON, THE OMEN, GREMLINS, BAD GIRLS) score to the 1992 Warner Bros. romantic fantasy FOREVER YOUNG starring Mel Gibson, Jamie Lee Curtis and Elijah Wood, and directed by Steve Miner. Lush, adventurous and timelessly romantic, Mr. Goldsmiths soaring orchestral score is among the most notable of the latter half of his astounding career. Produced by MV Gerhard and remastered by James Nelson, this expanded release runs nearly 75 minutes, featuring a wealth of previously unreleased music, along with bonus alternate cues and album version tracks. In-depth liner notes from film music writer Daniel Schweiger features new comments from the director."



Tracklist:

01. Test Flight (03:42)
02. Will You Marry Me? / Never Leave Me (01:10)
03. Hit And Run / Breaking Down The Door (Partially Unused) (02:52)
04. The Experiment (03:17)
05. The Warehouse (00:48)
06. The Deep Freeze (02:05)
07. Thawed Out (02:33)
08. The Lighthouse (Unused) (00:39)
09. Time To Leave (00:24)
10. The Wrong Man (00:17)
11. The Air Show (01:18)
12. Kitchen Aid (Partially Unused) (02:10)
13. The Diner (02:00)
14. I Was Wrong (Unused) (01:44)
15. The Jacket (Partially Unused) (01:31)
16. The Tree House (03:06)
17. Good News (00:52)
18. Getting Away (01:19)
19. Best Friends (01:54)
20. She's Alive (Extended) (03:44)
21. Nat's Missing (00:25)
22. Reunited (07:44)

Bonus tracks:

23. Love Theme From Forever Young (04:06)
24. Will You Marry Me? (Alternate) (00:34)
25. Time To Leave (Alternate) (00:24)
26. The Jacket (Alternate) (01:27)
27. Test Flight (Album Version) (03:41)
28. Ktchen Aid (Album Version) (02:42)
29. The Air Show (Album Version) (02:30)
30. Let's Go (Album Version) (03:01)
31. Reunited (Album Version) (07:42)
32. 'The Very Thought Of You' (02:43) - Billie Holiday


Exact Audio Copy V1.0 beta 3 from 29. August 2011

EAC extraction logfile from 25. March 2015, 20:12

Jerry Goldsmith / Forever Young

Used drive : TSSTcorpCDDVDW SH-S202H Adapter: 0 ID: 0

Read mode : Secure
Utilize accurate stream : Yes
Defeat audio cache : Yes
Make use of C2 pointers : No

Read offset correction

: 6
Overread into Lead-In and Lead-Out : No
Fill up missing offset samples with silence : Yes
Delete leading and trailing silent blocks : No
Null samples used in CRC calculations : Yes
Used interface
: Native Win32 interface for Win NT & 2000

Used output format : Internal WAV Routines
Sample format : 44.100 Hz; 16 Bit; Stereo

TOC of the extracted CD Track | Start | Length | Start sector | End sector
--1 | 0:00.00 | 3:42.07 | 0 | 16656 2 | 3:42.07 | 1:10.13 | 16657 | 21919 3 | 4:52.20 | 2:52.06 | 21920 | 34825 4 | 7:44.26 | 3:17.09 | 34826 | 49609 5 | 11:01.35 | 0:48.04 | 49610 | 53213 6 | 11:49.39 | 2:05.05 | 53214 | 62593 7 | 13:54.44 | 2:33.72 | 62594 | 74140 8 | 16:28.41 | 0:39.65 | 74141 | 77130 9 | 17:08.31 | 0:24.23 | 77131 | 78953
10 | 17:32.54 | 0:17.65 | 78954 | 80293
11 | 17:50.44 | 1:18.00 | 80294 | 86143
12 | 19:08.44 | 2:10.18 | 86144 | 95911
13 | 21:18.62 | 2:00.03 | 95912 | 104914
14 | 23:18.65 | 1:44.40 | 104915 | 112754
15 | 25:03.30 | 1:31.30 | 112755 | 119609
16 | 26:34.60 | 3:06.65 | 119610 | 133624
17 | 29:41.50 | 0:52.31 | 133625 | 137555
18 | 30:34.06 | 1:19.57 | 137556 | 143537
19 | 31:53.63 | 1:54.19 | 143538 | 152106
20 | 33:48.07 | 3:44.29 | 152107 | 168935
21 | 37:32.36 | 0:25.61 | 168936 | 170871
22 | 37:58.22 | 7:44.70 | 170872 | 205741
23 | 45:43.17 | 4:06.00 | 205742 | 224191
24 | 49:49.17 | 0:34.38 | 224192 | 226779
25 | 50:23.55 | 0:24.55 | 226780 | 228634
26 | 50:48.35 | 1:27.09 | 228635 | 235168
27 | 52:15.44 | 3:41.07 | 235169 | 251750
28 | 55:56.51 | 2:42.37 | 251751 | 263937
29 | 58:39.13 | 2:30.07 | 263938 | 275194
30 | 61:09.20 | 3:01.50 | 275195 | 288819
31 | 64:10.70 | 7:42.38 | 288820 | 323507
32 | 71:53.33 | 2:43.55 | 323508 | 335787

Range status and errors

Selected range Filename D:\Jerry Goldsmith - Forever Young\Jerry Goldsmith - Forever Young.wav Peak level 99.9 %
Extraction speed 8.5 X
Range quality 100.0 %
Test CRC F17FAD63
Copy CRC F17FAD63
Copy OK

No errors occurred


AccurateRip summary

Track 1 accurately ripped (confidence 15) [16279350] (AR v2)
Track 2 accurately ripped (confidence 14) [E5421C2F] (AR v2)
Track 3 accurately ripped (confidence 14) [23D080B7] (AR v2)
Track 4 accurately ripped (confidence 14) [029C9ED2] (AR v2)
Track 5 accurately ripped (confidence 14) [6F192F0F] (AR v2)
Track 6 accurately ripped (confidence 14) [10ACF55A] (AR v2)
Track 7 accurately ripped (confidence 14) [3049F624] (AR v2)
Track 8 accurately ripped (confidence 14) [095B4FC9] (AR v2)
Track 9 accurately ripped (confidence 14) [7E6B2321] (AR v2)
Track 10 accurately ripped (confidence 14) [1C8DF7AE] (AR v2)
Track 11 accurately ripped (confidence 14) [3447B5C1] (AR v2)
Track 12 accurately ripped (confidence 14) AD5501B (AR v2)
Track 13 accurately ripped (confidence 14) [649C6FDE] (AR v2)
Track 14 accurately ripped (confidence 14) [CEDA9229] (AR v2)
Track 15 accurately ripped (confidence 14) 29B87A2 (AR v2)
Track 16 accurately ripped (confidence 14) [6C9D1A27] (AR v2)
Track 17 accurately ripped (confidence 14) [75833D0D] (AR v2)
Track 18 accurately ripped (confidence 14) [1F6336A1] (AR v2)
Track 19 accurately ripped (confidence 14) [E662CF56] (AR v2)
Track 20 accurately ripped (confidence 14) [FA9D27B7] (AR v2)
Track 21 accurately ripped (confidence 14) [FC00677A] (AR v2)
Track 22 accurately ripped (confidence 14) 52EDD2C (AR v2)
Track 23 accurately ripped (confidence 13) [6BD23A3B] (AR v2)
Track 24 accurately ripped (confidence 12) [AB928C1D] (AR v2)
Track 25 accurately ripped (confidence 12) [CC2C85E7] (AR v2)
Track 26 accurately ripped (confidence 12) [20CD09F6] (AR v2)
Track 27 accurately ripped (confidence 13) [3649B2BA] (AR v2)
Track 28 accurately ripped (confidence 13) [DEA4B912] (AR v2)
Track 29 accurately ripped (confidence 13) [05858E2F] (AR v2)
Track 30 accurately ripped (confidence 13) [E16978DB] (AR v2)
Track 31 accurately ripped (confidence 13) [0D4B3FDD] (AR v2)
Track 32 accurately ripped (confidence 12) [2CD140D9] (AR v2)

All tracks accurately ripped

End of status report

==== Log checksum 3021E7309DE433943F31E50D4DEC59B701D21F642235C3DF049FB621B635F300 ====

foobar2000 1.2 / Dynamic Range Meter 1.1.1
log date: 2015-10-07 15:18:12

Analyzed: Jerry Goldsmith / Forever Young

DR Peak RMS Duration Track

DR12 -0.08 dB -15.37 dB 3:42 01-Test Flight
DR11 -14.26 dB -29.76 dB 1:10 02-Will You Marry Me? / Never Leave Me
DR13 -8.86 dB -30.26 dB 2:52 03-Hit And Run / Breaking Down The Door (Partially Unused)
DR11 -0.80 dB -19.05 dB 3:17 04-The Experiment
DR10 -9.73 dB -28.00 dB 0:48 05-The Warehouse
DR19 -0.08 dB -24.85 dB 2:05 06-The Deep Freeze
DR13 -2.99 dB -24.59 dB 2:34 07-Thawed Out
DR9 -14.87 dB -29.22 dB 0:40 08-The Lighthouse (Unused)
DR11 -16.77 dB -35.50 dB 0:24 09-Time To Leave
DR9 -12.81 dB -28.36 dB 0:18 10-The Wrong Man
DR9 -8.87 dB -25.19 dB 1:18 11-The Air Show
DR13 -1.72 dB -22.42 dB 2:10 12-Kitchen Aid (Partially Unused)
DR11 -11.02 dB -27.32 dB 2:00 13-The Diner
DR11 -12.90 dB -30.14 dB 1:45 14-I Was Wrong (Unused)
DR13 -8.82 dB -27.12 dB 1:31 15-The Jacket (Partially Unused)
DR14 -0.01 dB -18.58 dB 3:07 16-The Tree House
DR10 -17.55 dB -32.09 dB 0:52 17-Good News
DR11 -0.95 dB -22.80 dB 1:20 18-Getting Away
DR13 -9.28 dB -28.44 dB 1:54 19-Best Friends
DR12 -0.03 dB -17.19 dB 3:44 20-She's Alive (Extended)
DR11 -0.53 dB -18.46 dB 0:26 21-Nat's Missing
DR14 -0.01 dB -19.22 dB 7:45 22-Reunited
DR11 -1.94 dB -18.04 dB 4:06 23-Love Theme From Forever Young
DR9 -12.96 dB -28.31 dB 0:35 24-Will You Marry Me? (Alternate)
DR11 -15.71 dB -32.26 dB 0:25 25-Time To Leave (Alternate)
DR13 -10.98 dB -28.62 dB 1:27 26-The Jacket (Alternate)
DR15 -0.13 dB -18.69 dB 3:41 27-Test Flight (Album Version)
DR15 -0.19 dB -22.01 dB 2:42 28-Ktchen Aid (Album Version)
DR17 -0.60 dB -23.26 dB 2:30 29-The Air Show (Album Version)
DR14 -6.24 dB -26.33 dB 3:02 30-Let's Go (Album Version)
DR13 -0.23 dB -18.47 dB 7:43 31-Reunited (Album Version)

Number of tracks: 31
Official DR value: DR12

Samplerate: 44100 Hz
Channels: 2
Bits per sample: 16
Bitrate: 617 kbps
Codec: FLAC

foobar2000 1.2 / Dynamic Range Meter 1.1.1
log date: 2015-10-07 15:17:52

Statistics for: 32-'The Very Thought Of You'
Number of samples: 7220640
Duration: 2:44
Left Right

Peak Value: -9.46 dB -9.29 dB
Avg RMS: -22.82 dB -22.62 dB
DR channel: 11.14 dB 10.69 dB

Official DR Value: DR11

Samplerate: 44100 Hz
Channels: 2
Bits per sample: 16
Bitrate: 617 kbps
Codec: FLAC

Jerry Goldsmith - Forever Young: Original Soundtrack (1992) Expanded Limited Edition 2011

Jerry Goldsmith - Forever Young: Original Soundtrack (1992) Expanded Limited Edition 2011

All thanks to original releaser - Composer's fan
Password: designol

DOWNLOAD LINKS
Buy Premium From My Links To Get Resumable Support & Max Speed & To Support Me


Links are Interchangeable - No Password - Single Extraction
Direct Download

Tags: Goldsmith, Forever, Original, Soundtrack, Expanded, Limited

Jerry Goldsmith - Forever Young: Original Soundtrack (1992) Expanded Limited Edition 2011 Download via Hotfile Rapidshare Fileserve Megaupload & FileSonic, Jerry Goldsmith - Forever Young: Original Soundtrack (1992) Expanded Limited Edition 2011 free torrent downloads included crack, serial, keygen.Jerry Goldsmith - Forever Young: Original Soundtrack (1992) Expanded Limited Edition 2011 Fast Download via Rapidshare Hotfile Fileserve Filesonic Megaupload, Jerry Goldsmith - Forever Young: Original Soundtrack (1992) Expanded Limited Edition 2011 Torrents and Emule Download or anything related.
Leave a Comment
Your Name:
E-Mail:
Add Comments:

Enter Code: