Thomas Demenga, Thomas Larcher, Teodoro Anzellotti - Chonguri (2006)

Download Now

Thomas Demenga, Thomas Larcher, Teodoro Anzellotti - Chonguri (2006)

Thomas Demenga, Thomas Larcher, Teodoro Anzellotti - Chonguri (2006)
J.S. Bach - Gaspar Cassadó - Frédéric Chopin - Gabriel Fauré - Anton Webern - Franz Liszt - Sulkhan Tsintsadze

EAC | APE | Image (Cue&Log) ~ 212 Mb (incl 5%) | Mp3 (CBR320) ~ 152 Mb (incl 5%) | Scans included
Genre: Classical | Label: ECM | # ECM New Series 1914, 476 3022 | Time: 00:56:53

"Chonguri is the name of the traditional long neck lute from Georgia which inspired Georgian composer and cellist Sulkhan Tsinzadze to write an atmospheric all-pizzicato piece. Its exotic plucked sound marks the eastern starting point of a journey that alights on many European places before finishing off with an equally evocative scene from New York composed by Demenga himself. The Swiss cellist revitalizes the 19th century practice of arranging diverse music for one's own instrument, thus adopting two Chopin Nocturnes and four Bach Chorales (in Demenga's own transcriptions) for this CD recital. Demenga's panorama of poetic miniatures, with Webern's two sets of Kleine Stücke at its centre, features a mix of popular and more abstract musical idioms, blending humour and nostalgia in an entertaining programme."

"Swiss cellist Thomas Demenga here comes up with an unusual angle on the contemporary attempt to make the instrumental a personal statement rather than a mere demonstration of mastery: he plays a program of encores. Of course, many famed instrumental performers have released albums of encores, but there's never been one like this before. Demenga explores the concept of the encore itself, positing it as the only segment of the traditional recital in which the performer could display his or her own personality -- in the words of the rather verbose notes of Anselm Cybinski, could "display the wandering minstrel who slumbers unacknowledged even in the most cerebral of musical exegetes." Thus Demenga offers examples of various types of encores. There is the virtuoso exotic encore, often coming from a composer's own ethnic tradition; these are represented here by the title work by Georgian composer Sulkhan Tsintsadze and by the Danse du diable vert of Gaspar Cassadò. There is the Romantic encore with a beautiful tune, exemplified here by works of Chopin and Fauré. There are intellectual works (Webern, late Liszt), and Bach chorales, presented here in delightful arrangements with accordion by Demenga himself. And there are pieces composed by the player -- which, as Demenga points out, fell out of favor as modernism tightened its icy grip on music. Demenga's own works are great crowd-pleasers. Start your sampling with his New York Honk, the last work on the program: the cello plays an energetic figure that seems to be interrupted by city traffic noises.

Having sorted out all these strands, Demenga weaves them together once again in a program that makes sense harmonically and in terms of timing -- he even varies the lengths of the pauses between tracks as he manipulates its ebb and flow. What is intended, again in Cybinski's words, is "a 'composed' continuum in which seemingly heterogeneous items coalesce, almost nonchalantly exploding ancient misgivings against suites of miniatures." The music reminds you that it's fun when it seems to be getting too serious, and it tells you to think about it when it starts to seem lightweight. It all adds up to a virtuoso performance in the best sense of the word -- in the mind as well as the fingers -- and one that would surely attract audiences if offered in tour in support of the recording.

Review by James Manheim, Allmusic.com
"


"Nothing that emerges from Manfred Eicher's ECM stable is likely to lack a considered musical context, and true to form cellist Thomas Demenga's programme is no mere string of encores. The chain of musical events always seems to follow some sort of purpose, be it for contrast or for continuity, the catchy opening solo, which ends on pizzicato harmonics, stopping short before Demenga and accordionist Teodor Anzellotti lean together for a couple of Bach chorales, one slow, the other sporting a swift and elegant accompaniment.

Picking up the tempo allows for an easy hop from Bach to Cassadó and a switch from Anzellotti's sonorous wheezing to Thomas Larcher's sassy piano-playing. Good fun this, but a short-lived spree before Chopin takes over with Piatigorsky's sensitive transcription of the (early) C sharp minor Nocturne. Here Demenga's cello affects an expressive and gentle high baritone, nicely inflected with evenly deployed double-stops. Fauré's Romance is an altogether darker, more restless piece and how ingenious to follow its rarefied atmosphere with Webern, first the serial Drei kleine Stücke, then the Straussian early Zwei Stücke. A more conventional soul would have put the early Webern pieces first, but not Demenga - and rightly so.

Another well planned sequence has Demenga's own version of Chopin's famous E flat Nocturne followed by Liszt's La lugubre gondola (very passionately played), then a piece of his own devising "after Berg and Bach", and more Bach, again with Anzellotti. The programme closes with two uproarious minutes' worth of New York Honk, a bit like rushing across a busy road with your head still in the clouds, not surprising given everything that we've been listening to! I enjoyed it all hugely.

Review by Rob Cowan, Gramophone.co.uk
"




Performers:

- Thomas Demenga, violoncello
- Thomas Larcher, piano
- Teodoro Anzellotti, accordion

Tracklist:

01. Sulkhan Tsintsadze - Chonguri (01:22)
02. Johann Sebastian Bach - Das Alte Jahr Vergangen Ist (02:26)
03. Johann Sebastian Bach - Herr Gott, Nun Schleuss' Den Himmel Auf (01:52)
04. Gaspar Cassadó - Danse Du Diable Vert (03:20)
05. Frédéric Chopin - Nocturne In C Sharp Minor, Op. Post. (04:10)
06. Gabriel Fauré - Romance (03:55)
07. Anton Webern - Drei Kleine Stücke; I. Mäßige (01:00)
08. Anton Webern - Drei Kleine Stücke; II. Sehr Bewegt (00:19)
09. Anton Webern - Drei Kleine Stücke; III. Äußerst Ruhig (00:59)
10. Anton Webern - Zwei Stücke; I. Langsam (02:54)
11. Anton Webern - Zwei Stücke; II. Langsam (01:58)
12. Johann Sebastian Bach - Ich Ruf' Zu Dir, Herr Jesu Christ (03:36)
13. Gabriel Fauré - Après Un Rêve (03:00)
14. Frédéric Chopin - Nocturne In E Flat Major, Op. 9 No. 2 (05:04)
15. Franz Liszt - La Lugubre Gondola (07:38)
16. Thomas Demenga - Eine Kleine Erregung (Über Berg Und Bach) (04:28)
17. Johann Sebastian Bach - Meine Seele Erhebt Den Herrn (02:05)
18. Gabriel Fauré - Berceuse (03:21)
19. Darius Milhaud - Vocalise-étude Pour Voix Élevées (01:02)
20. Thomas Demenga - New York Honk (02:13)


Exact Audio Copy V0.99 prebeta 5 from 4. May 2009

EAC extraction logfile from 19. January 2010, 19:11

Thomas Demenga, Thomas Larcher, Teodore Anzellotti / Chonguri

Used drive : TSSTcorpCDDVDW TS-L632N Adapter: 0 ID: 0

Read mode : Secure
Utilize accurate stream : Yes
Defeat audio cache : Yes
Make use of C2 pointers : No

Read offset correction

: 6
Overread into Lead-In and Lead-Out : No
Fill up missing offset samples with silence : Yes
Delete leading and trailing silent blocks : No
Null samples used in CRC calculations : Yes
Used interface
: Native Win32 interface for Win NT & 2000

Used output format : Internal WAV Routines
Sample format : 44.100 Hz; 16 Bit; Stereo

TOC of the extracted CD Track | Start | Length | Start sector | End sector
--1 | 0:00.00 | 1:22.47 | 0 | 6196 2 | 1:22.47 | 2:26.54 | 6197 | 17200 3 | 3:49.26 | 1:52.60 | 17201 | 25660 4 | 5:42.11 | 3:20.05 | 25661 | 40665 5 | 9:02.16 | 4:10.12 | 40666 | 59427 6 | 13:12.28 | 3:55.55 | 59428 | 77107 7 | 17:08.08 | 1:00.50 | 77108 | 81657 8 | 18:08.58 | 0:19.65 | 81658 | 83147 9 | 18:28.48 | 0:59.38 | 83148 | 87610
10 | 19:28.11 | 2:54.60 | 87611 | 100720
11 | 22:22.71 | 1:58.30 | 100721 | 109600
12 | 24:21.26 | 3:36.05 | 109601 | 125805
13 | 27:57.31 | 3:00.27 | 125806 | 139332
14 | 30:57.58 | 5:04.55 | 139333 | 162187
15 | 36:02.38 | 7:38.58 | 162188 | 196595
16 | 43:41.21 | 4:28.52 | 196596 | 216747
17 | 48:09.73 | 2:05.38 | 216748 | 226160
18 | 50:15.36 | 3:21.27 | 226161 | 241262
19 | 53:36.63 | 1:02.35 | 241263 | 245947
20 | 54:39.23 | 2:13.53 | 245948 | 255975

Range status and errors

Selected range Filename H:\Thomas Demenga, Thomas Larcher, Teodore Anzellotti - Chonguri\Thomas Demenga, Thomas Larcher, Teodore Anzellotti - Chonguri.wav Peak level 99.9 %
Range quality 100.0 %
Copy CRC 711DB096
Copy OK

No errors occurred


AccurateRip summary

Track 1 accurately ripped (confidence 4) [0E9A9822]
Track 2 accurately ripped (confidence 4) [D0DF090D]
Track 3 accurately ripped (confidence 4) [3434A7E1]
Track 4 accurately ripped (confidence 4) [D8C505FF]
Track 5 accurately ripped (confidence 4) [7FDE60E4]
Track 6 accurately ripped (confidence 4) [76F3F9E1]
Track 7 accurately ripped (confidence 4) [83DDEE32]
Track 8 accurately ripped (confidence 4) [69D3EE18]
Track 9 accurately ripped (confidence 4) 54D0B9A
Track 10 accurately ripped (confidence 4) [0C0B1047]
Track 11 accurately ripped (confidence 4) [D52378DE]
Track 12 accurately ripped (confidence 4) [611346CD]
Track 13 accurately ripped (confidence 4) [29E673E5]
Track 14 accurately ripped (confidence 4) [312C2048]
Track 15 accurately ripped (confidence 4) [0876FA39]
Track 16 accurately ripped (confidence 4) [998B468B]
Track 17 accurately ripped (confidence 4) [E6A0CE66]
Track 18 accurately ripped (confidence 4) [DECF94BE]
Track 19 accurately ripped (confidence 4) FDEE668
Track 20 accurately ripped (confidence 4) [E338E8D4]

All tracks accurately ripped

End of status report

[CUETools log; Date: 07.10.2015 15:56:14; Version: 2.1.4]
[CTDB TOCID: j1kGXjxXIx_LVGS9kMxZLgAUE7s-] found.
Track | CTDB Status
1 | (2/2) Accurately ripped
2 | (2/2) Accurately ripped
3 | (2/2) Accurately ripped
4 | (2/2) Accurately ripped
5 | (2/2) Accurately ripped
6 | (2/2) Accurately ripped
7 | (2/2) Accurately ripped
8 | (1/2) Accurately ripped, or (1/2) differs in 113 samples @00:18:70
9 | (2/2) Accurately ripped
10 | (2/2) Accurately ripped
11 | (2/2) Accurately ripped
12 | (2/2) Accurately ripped
13 | (2/2) Accurately ripped
14 | (2/2) Accurately ripped
15 | (2/2) Accurately ripped
16 | (2/2) Accurately ripped
17 | (2/2) Accurately ripped
18 | (2/2) Accurately ripped
19 | (2/2) Accurately ripped
20 | (2/2) Accurately ripped
[AccurateRip ID: 002621cb-0240424c-f70d5514] found.
Track [ CRC | V2 ] Status
01 [0e9a9822|18b5b5dd] (11+04/15) Accurately ripped
02 [d0df090d|0b6a066b] (11+04/15) Accurately ripped
03 [3434a7e1|60b13a96] (11+04/15) Accurately ripped
04 [d8c505ff|02dc399e] (11+04/15) Accurately ripped
05 [7fde60e4|bc61fb02] (11+04/15) Accurately ripped
06 [76f3f9e1|a617caef] (11+04/15) Accurately ripped
07 [83ddee32|a9a7b8c2] (11+04/15) Accurately ripped
08 [69d3ee18|3fa32db7] (11+04/15) Accurately ripped
09 54d0b9a|d29c2835 (11+04/15) Accurately ripped
10 [0c0b1047|82a6728d] (11+04/15) Accurately ripped
11 [d52378de|7cdb8131] (11+04/15) Accurately ripped
12 [611346cd|a760d6c7] (11+04/15) Accurately ripped
13 [29e673e5|32ac7e6c] (11+04/15) Accurately ripped
14 [312c2048|6ca39194] (11+04/15) Accurately ripped
15 [0876fa39|f6344315] (11+04/15) Accurately ripped
16 [998b468b|286fab4d] (11+04/15) Accurately ripped
17 [e6a0ce66|7c365615] (11+04/15) Accurately ripped
18 [decf94be|8e05e1fb] (11+04/15) Accurately ripped
19 fdee668|1562f835 (11+04/15) Accurately ripped
20 [e338e8d4|8f93b52e] (11+04/15) Accurately ripped

Track Peak [ CRC32 ] [W/O NULL] [ LOG ]
-- 99,9 [711DB096] [0D317A4E] CRC32
01 55,1 [4B644430] [99D86F3C]
02 47,4 [732BBEC0] [A63339B3]
03 43,2 [0CE46329] [0762EB4C]
04 91,0 [489304E3] [468DC9FB]
05 33,1 [E203B441] [23A7994E]
06 72,4 [12B6E147] [6E226AB6]
07 68,9 [63F97CF3] [834A35DF]
08 94,0 B3B0E43 [FFB01BDD]
09 13,1 [8B706A28] [AB5E65E6]
10 60,3 [135037AD] [ED1F8BF3]
11 87,3 [F70A4BA5] [0208B8EF]
12 25,4 [1FA41410] [3EC6A07C]
13 54,9 [DD8141AC] [C5A85A33]
14 52,0 [372F77D5] [4725D023]
15 99,9 [6E86A35E] [7D4C0C20]
16 93,6 [C31FDA33] [C8EE7A4E]
17 28,1 [5278177A] [A5467597]
18 47,0 [D2BB80EA] [2D5A9288]
19 25,6 [99FF17C4] [813324D7]
20 99,9 [46F1E9B4] [E26DA920]

foobar2000 1.2 / Dynamic Range Meter 1.1.1
log date: 2015-10-07 16:04:27

Analyzed: Thomas Demenga, Thomas Larcher, Teodoro Anzellotti / Chonguri

DR Peak RMS Duration Track

DR14 -5.17 dB -25.40 dB 1:23 01-Sulkhan Tsintsadze - Chonguri
DR11 -6.47 dB -26.74 dB 2:27 02-JS Bach - Das Alte Jahr Vergangen Ist
DR12 -7.28 dB -22.76 dB 1:53 03-JS Bach - Herr Gott, Nun Schleuss' Den Himmel Auf
DR14 -0.81 dB -20.56 dB 3:20 04-Gaspar Cassado - Danse Du Diable Vert
DR12 -9.60 dB -27.69 dB 4:10 05-Frederic Chopin - Nocturne In C Sharp Minor, Op. Post.
DR12 -2.79 dB -20.48 dB 3:56 06-Gabriel Faure - Romance
DR6 -3.23 dB -31.66 dB 1:01 07-Anton Webern - Drei Kleine Stucke; I. Massige
DR10 -0.53 dB -15.53 dB 0:20 08-Anton Webern - Drei Kleine Stucke; II. Sehr Bewegt
DR16 -17.59 dB -40.22 dB 1:00 09-Anton Webern - Drei Kleine Stucke; III. Ausserst Ruhig
DR13 -4.38 dB -25.45 dB 2:55 10-Anton Webern - Zwei Stucke; I. Langsam
DR13 -1.18 dB -22.05 dB 1:58 11-Anton Webern - Zwei Stucke; II. Langsam
DR11 -11.88 dB -27.67 dB 3:36 12-JS Bach - Ich Ruf' Zu Dir, Herr Jesu Christ
DR13 -5.20 dB -24.14 dB 3:00 13-Gabriel Faure - Apres Un Reve
DR14 -5.67 dB -25.56 dB 5:05 14-Frederic Chopin - Nocturne In E Flat Major, Op. 9 No. 2
DR15 0.00 dB -22.80 dB 7:39 15-Franz Liszt - La Lugubre Gondola
DR17 -0.57 dB -23.88 dB 4:29 16-Thomas Demenga - Eine Kleine Erregung (Uber Berg Und Bach)
DR11 -11.00 dB -27.40 dB 2:06 17-JS Bach - Meine Seele Erhebt Den Herrn
DR10 -6.55 dB -22.92 dB 3:21 18-Gabriel Faure - Berceuse
DR10 -11.81 dB -25.64 dB 1:02 19-Darius Milhaud - Vocalise-etude Pour Voix Elevees
DR15 0.00 dB -18.67 dB 2:14 20-Thomas Demenga - New York Honk

Number of tracks: 20
Official DR value: DR13

Samplerate: 44100 Hz
Channels: 2
Bits per sample: 16
Bitrate: 461 kbps
Codec: Monkey's Audio

Thomas Demenga, Thomas Larcher, Teodoro Anzellotti - Chonguri (2006)

All thanks to original releaser - aliomodo
Password: designol

DOWNLOAD LINKS
Buy Premium From My Links To Get Resumable Support & Max Speed & To Support Me


Links are Interchangeable - No Password - Single Extraction
Direct Download

Tags: Thomas, Demenga, Thomas, Larcher, Teodoro, Anzellotti, Chonguri

Thomas Demenga, Thomas Larcher, Teodoro Anzellotti - Chonguri (2006) Download via Hotfile Rapidshare Fileserve Megaupload & FileSonic, Thomas Demenga, Thomas Larcher, Teodoro Anzellotti - Chonguri (2006) free torrent downloads included crack, serial, keygen.Thomas Demenga, Thomas Larcher, Teodoro Anzellotti - Chonguri (2006) Fast Download via Rapidshare Hotfile Fileserve Filesonic Megaupload, Thomas Demenga, Thomas Larcher, Teodoro Anzellotti - Chonguri (2006) Torrents and Emule Download or anything related.
Leave a Comment
Your Name:
E-Mail:
Add Comments:

Enter Code: