Wagner Tiso - Giselle (1987) {Polygram Brasil}

Download Now

Wagner Tiso - Giselle (1987) {Polygram Brasil}

Wagner Tiso - Giselle (1987) {Polygram Brasil}
EAC 1.0b3 | FLAC tracks level 8 | Cue+Log+M3U | Full Scans 300dpi | 361MB + 5% Recovery
Genre: Latin Jazz, Smooth Jazz, Fusion

"Wagner Tiso is an internationally renowned musician whose achievements include a having a solid impact on the rise of major singer Milton Nascimento, an extensive set of composed soundtracks for movies, a solo discography comprising 28 albums, and performances with jazz giants such as Edison Machado, Paulo Moura, Ron Carter, Johnny Alf, and many others."

Track List
01. Giselle 4:37
02. Chuva De Agosto (August Rain) 5:24
03. Santa Efigenia 4:59
04. Olinda Guanabara 3:39
05. Nascimento (For "Bituca") 5:37
06. Branco Е Preto (White and Black) 5:41
07. Clube Da Esquina (Street Corner Gang) 5:02
08. Preto E Branco (Black and White) 3:42
09. Joana (For My Daughter) 3:17
10. Balao (Hot Air Balloon) 6:05
11. Comunhao (Communion) 3:50
12. Arraial Das Candongas 4:15

musicians
Wagner Tiso - Yamaha Piano, LP 10, DX7. Memory-Moog, accordion, vocal
Milton Nascimento - vocals
Nivaldo Ornelas - tenor and soprano saxes
Ricardo Silveira - acoustic guitar
Toninho Horta - vocal
Heitor T.P. - guitar
Jacques Morelenbaum - cello
Nico Assumpchao - bass
Robertinho Silva - drums, percussion
Paulo Braga, Drums
Zeca Assumpgao - acoustic bass
Nene - drums, percussion
Robertinho Silva - drums, percussion
Paulinho Carvalho - Bass
Viva Voz - Vocals
Luiz Alves - bass
Frank Colon - percussion
Helio Delmiro - Guitar
Mauro Senise - flute, alto sax
Jacques Morelenbaum - cello
Teo Lima - drums
Joao Baptista - bass
Victor Biglioni - guitar
Lo Borges - vocal
Beto Guedes - vocal
Rafael Rabelo - 7 string guitar
Percussion Ensemble and Wind Ensemble on 6

Produced By Wagner Tiso and Durval Ferreira

Exact Audio Copy V1.0 beta 3 from 29. August 2011

EAC extraction logfile from 17. May 2014, 16:53

Wagner Tiso / Giselle

Used drive : HL-DT-STDVD-RAM GH22NP20 Adapter: 0 ID: 0

Read mode : Secure
Utilize accurate stream : Yes
Defeat audio cache : Yes
Make use of C2 pointers : No

Read offset correction

: 102
Overread into Lead-In and Lead-Out : No
Fill up missing offset samples with silence : Yes
Delete leading and trailing silent blocks : No
Null samples used in CRC calculations : Yes
Used interface
: Native Win32 interface for Win NT & 2000
Gap handling
: Appended to previous track

Used output format : User Defined Encoder
Selected bitrate : 1024 kBit/s
Quality : High
Add ID3 tag : No
Command line compressor : C:\Program Files\Exact Audio Copy\Flac\flac.exe
Additional command line options : -V -8 -T "Genre=%genre%" -T "Artist=%artist%" -T "Title=%title%" -T "Album=%albumtitle%" -T "Date=%year%" -T "Tracknumber=%tracknr%" -T "Comment=%comment%" %source%

TOC of the extracted CD Track | Start | Length | Start sector | End sector
--1 | 0:00.33 | 4:40.20 | 33 | 21052 2 | 4:40.53 | 5:27.30 | 21053 | 45607 3 | 10:08.08 | 5:02.17 | 45608 | 68274 4 | 15:10.25 | 3:41.68 | 68275 | 84917 5 | 18:52.18 | 5:39.72 | 84918 | 110414 6 | 24:32.15 | 5:43.40 | 110415 | 136179 7 | 30:15.55 | 5:04.55 | 136180 | 159034 8 | 35:20.35 | 3:45.20 | 159035 | 175929 9 | 39:05.55 | 3:20.00 | 175930 | 190929
10 | 42:25.55 | 6:07.73 | 190930 | 218527
11 | 48:33.53 | 3:52.72 | 218528 | 235999
12 | 52:26.50 | 4:15.50 | 236000 | 255174

Track 1 Filename D:\music\Musicgate's rips\Wagner Tiso - Giselle - 1987 (Polygram 831 819-2)\01 - Giselle.wav Pre-gap length 0:00:02.33 Peak level 74.6 %
Extraction speed 1.6 X
Track quality 100.0 %
Test CRC 2D892882
Copy CRC 2D892882
Accurately ripped (confidence 1) [5AF1E894] (AR v2)
Copy OK

Track 2 Filename D:\music\Musicgate's rips\Wagner Tiso - Giselle - 1987 (Polygram 831 819-2)\02 - Chuva de Agosto.wav Peak level 77.6 %
Extraction speed 1.8 X
Track quality 100.0 %
Test CRC D2152BF8
Copy CRC D2152BF8
Accurately ripped (confidence 1) [50136CF7] (AR v2)
Copy OK

Track 3 Filename D:\music\Musicgate's rips\Wagner Tiso - Giselle - 1987 (Polygram 831 819-2)\03 - Santa Efigenia.wav Pre-gap length 0:00:02.33 Peak level 69.6 %
Extraction speed 2.0 X
Track quality 100.0 %
Test CRC E1645972
Copy CRC E1645972
Accurately ripped (confidence 1) [ABC5B235] (AR v2)
Copy OK

Track 4 Filename D:\music\Musicgate's rips\Wagner Tiso - Giselle - 1987 (Polygram 831 819-2)\04 - Olinda Guanabara.wav Pre-gap length 0:00:02.32 Peak level 77.3 %
Extraction speed 2.1 X
Track quality 100.0 %
Test CRC 9D1983F2
Copy CRC 9D1983F2
Accurately ripped (confidence 1) [0824698E] (AR v2)
Copy OK

Track 5 Filename D:\music\Musicgate's rips\Wagner Tiso - Giselle - 1987 (Polygram 831 819-2)\05 - Nacimento.wav Peak level 87.0 %
Extraction speed 2.2 X
Track quality 99.9 %
Test CRC 328159EB
Copy CRC 328159EB
Accurately ripped (confidence 1) [FAE00103] (AR v2)
Copy OK

Track 6 Filename D:\music\Musicgate's rips\Wagner Tiso - Giselle - 1987 (Polygram 831 819-2)\06 - Branco e Preto.wav Pre-gap length 0:00:02.52 Peak level 74.2 %
Extraction speed 2.6 X
Track quality 100.0 %
Test CRC 678370C2
Copy CRC 678370C2
Accurately ripped (confidence 1) [33EBE4E2] (AR v2)
Copy OK

Track 7 Filename D:\music\Musicgate's rips\Wagner Tiso - Giselle - 1987 (Polygram 831 819-2)\07 - Clube Da Esquina.wav Pre-gap length 0:00:01.50 Peak level 85.6 %
Extraction speed 2.7 X
Track quality 100.0 %
Test CRC BE97F1CD
Copy CRC BE97F1CD
Accurately ripped (confidence 1) [E3AE7DAC] (AR v2)
Copy OK

Track 8 Filename D:\music\Musicgate's rips\Wagner Tiso - Giselle - 1987 (Polygram 831 819-2)\08 - Preto e Branco.wav Pre-gap length 0:00:02.32 Peak level 82.0 %
Extraction speed 2.6 X
Track quality 100.0 %
Test CRC 40AA8985
Copy CRC 40AA8985
Accurately ripped (confidence 1) [42719753] (AR v2)
Copy OK

Track 9 Filename D:\music\Musicgate's rips\Wagner Tiso - Giselle - 1987 (Polygram 831 819-2)\09 - Joana.wav Pre-gap length 0:00:02.27 Peak level 88.7 %
Extraction speed 2.7 X
Track quality 100.0 %
Test CRC 84D7CC4B
Copy CRC 84D7CC4B
Accurately ripped (confidence 1) [5396EA9E] (AR v2)
Copy OK

Track 10 Filename D:\music\Musicgate's rips\Wagner Tiso - Giselle - 1987 (Polygram 831 819-2)\10 - Balao.wav Pre-gap length 0:00:02.47 Peak level 91.5 %
Extraction speed 3.0 X
Track quality 100.0 %
Test CRC C13274DE
Copy CRC C13274DE
Accurately ripped (confidence 1) [4280D610] (AR v2)
Copy OK

Track 11 Filename D:\music\Musicgate's rips\Wagner Tiso - Giselle - 1987 (Polygram 831 819-2)\11 - Comunhao.wav Pre-gap length 0:00:02.30 Peak level 77.6 %
Extraction speed 2.9 X
Track quality 100.0 %
Test CRC E569D02E
Copy CRC E569D02E
Accurately ripped (confidence 1) [57E7386A] (AR v2)
Copy OK

Track 12 Filename D:\music\Musicgate's rips\Wagner Tiso - Giselle - 1987 (Polygram 831 819-2)\12 - Arraial Das Candongas.wav Pre-gap length 0:00:02.35 Peak level 86.3 %
Extraction speed 2.8 X
Track quality 99.9 %
Test CRC 422FABA7
Copy CRC 422FABA7
Accurately ripped (confidence 1) [463B00E9] (AR v2)
Copy OK

All tracks accurately ripped

No errors occurred

End of status report

==== Log checksum 91E7D4C9E10E609B096804A7D8449112852A5568C95866B48388AF08F9A5B742 ====

Analyzed: Wagner Tiso / Giselle

DR Peak RMS Duration Track

DR15 -2.54 dB -20.54 dB 4:40 01-Giselle
DR13 -2.20 dB -17.04 dB 5:27 02-Chuva de Agosto
DR13 -3.14 dB -19.22 dB 5:02 03-Santa Efigenia
DR16 -2.23 dB -20.63 dB 3:42 04-Olinda Guanabara
DR14 -1.20 dB -19.56 dB 5:40 05-Nacimento
DR14 -2.58 dB -19.41 dB 5:44 06-Branco e Preto
DR12 -1.35 dB -15.85 dB 5:05 07-Clube Da Esquina
DR14 -1.71 dB -17.82 dB 3:45 08-Preto e Branco
DR12 -1.03 dB -17.12 dB 3:20 09-Joana
DR14 -0.77 dB -18.49 dB 6:08 10-Balao
DR14 -2.19 dB -17.84 dB 3:53 11-Comunhao
DR13 -1.28 dB -17.79 dB 4:16 12-Arraial Das Candongas

Number of tracks: 12
Official DR value: DR13

Samplerate: 44100 Hz
Channels: 2
Bits per sample: 16
Bitrate: 800 kbps
Codec: FLAC

Wagner Tiso - Giselle (1987) {Polygram Brasil}

Wagner Tiso - Giselle (1987) {Polygram Brasil}

Wagner Tiso - Giselle (1987) {Polygram Brasil}

Rip by Musicgate


DOWNLOAD:
Buy Premium To Support Me & Get Resumable Support & Max Speed


Links are Interchangeable - No Password
Direct Download

Tags: Wagner, Giselle, Polygram, Brasil

Wagner Tiso - Giselle (1987) {Polygram Brasil} Download via Hotfile Rapidshare Fileserve Megaupload & FileSonic, Wagner Tiso - Giselle (1987) {Polygram Brasil} free torrent downloads included crack, serial, keygen.Wagner Tiso - Giselle (1987) {Polygram Brasil} Fast Download via Rapidshare Hotfile Fileserve Filesonic Megaupload, Wagner Tiso - Giselle (1987) {Polygram Brasil} Torrents and Emule Download or anything related.
Leave a Comment
Your Name:
E-Mail:
Add Comments:

Enter Code: