Trouble - After The War (1970)

Download Now

Trouble - After The War (1970)

Trouble - After The War (1970)
EAC | Flac(Image) + Cue + Log & MP3 CBR 320Kbps
2013 | Private CD Production, 700 | ~ 220 or 118 Mb | Scans(600dpi, jpg) -> 88 Mb
Progressive Rock / Jazz Rock / Fusion

"Here's a fantastic horn rock opus from the earliest days of progressive rock music, or perhaps the waning days of progressive jazz music, shockingly without the strut or support of vocals so the program music has to stand on its own two feet..."

Trouble - After The War (1970)

Trouble at Discogs

***********

Trouble - After The War at Discogs
Trouble - After The War (1970):

Trouble - After The War (1970)

Tracklist:

01. Christmas Day's Evening [04:20.773]
02. Circus Waltz / After The War [05:23.787]
03. Lonely People / Ballad [09:49.987]
04. Children Song [03:58.947]
05. Twinkle [03:21.360]
06. Winter Night [03:20.747]
07. Three / Deep Six [09:45.213]

Musicians:

Ole Berndorf - guitar
Niels-Henning Ørsted Pedersen - bass
Ole Koch Hansen - organ, piano
Ray Pitts - soprano/tenor saxophones, flute
Allan Botschinsky - trumpet, flugelhorn
Bjarne Rostvold - drums


Exact Audio Copy V1.0 beta 3 from 29. August 2011

Отчёт EAC об извлечении, выполненном 20. июля 2015, 12:50

TROUBLE / After The War

Дисковод: TSSTcorpCDDVDW SH-224DB Adapter: 4 ID: 1

Режим чтения : Достоверность
Использование точного потока : Да
Отключение кэша аудио : Да
Использование указателей C2 : Нет

Коррекция смещения при чтении : 6
Способность читать области Lead-in и Lead-out : Нет
Заполнение пропущенных сэмплов тишиной : Да
Удаление блоков с тишиной в начале и конце : Нет
При вычислениях CRC использовались нулевые сэмплы : Да
Интерфейс : Встроенный Win32-интерфейс для Win NT/2000

Выходной формат : Внутренние WAV-операции
Формат сэмплов : 44.100 Гц; 16 бит; стерео

TOC извлечённого CD Трек | Старт | Длительность | Начальный сектор | Конечный сектор

1 | 0:00.00 | 4:20.58 | 0 | 19557
2 | 4:20.58 | 5:23.59 | 19558 | 43841
3 | 9:44.42 | 9:49.74 | 43842 | 88090
4 | 19:34.41 | 3:58.71 | 88091 | 106011
5 | 23:33.37 | 3:21.27 | 106012 | 121113
6 | 26:54.64 | 3:20.56 | 121114 | 136169
7 | 30:15.45 | 9:45.16 | 136170 | 180060

Характеристики диапазона извлечения и сообщения об ошибках

Выбранный диапазон Имя файла D:\TEMP\TROUBLE - 1970 - After The War [2013 Private CD Production, CD 700].wav Пиковый уровень 96.6 %
Скорость извлечения 5.2 X
Качество диапазона 100.0 %
CRC теста 1D3DCD11
CRC копии 1D3DCD11
Копирование... OK

Ошибок не произошло


AccurateRip: сводка

Трек 1 отсутствует в базе данных
Трек 2 отсутствует в базе данных
Трек 3 отсутствует в базе данных
Трек 4 отсутствует в базе данных
Трек 5 отсутствует в базе данных
Трек 6 отсутствует в базе данных
Трек 7 отсутствует в базе данных

Ни одного трека нет в базе AccurateRip

Конец отчёта

==== Контрольная сумма отчёта 140458F5670DFB4B29EB1A91E5C450D67E5D63281F263344BE66A1AAE14C927C ====

foobar2000 1.2.9 / Dynamic Range Meter 1.1.1
log date: 2015-10-07 12:43:32

Analyzed: TROUBLE / After The War

DR Peak RMS Duration Track

DR12 -0.30 dB -14.01 dB 4:21 01-Christmas Day’s Evening
DR13 -0.30 dB -16.03 dB 5:24 02-Circus Waltz / After The War
DR13 -0.30 dB -16.89 dB 9:50 03-Lonely People / Ballad
DR11 -0.30 dB -14.00 dB 3:59 04-Children Song
DR10 -0.30 dB -12.90 dB 3:21 05-Twinkle
DR11 -0.30 dB -13.52 dB 3:21 06-Winter Night
DR12 -0.30 dB -15.55 dB 9:45 07-Three / Deep Six

Number of tracks: 7
Official DR value: DR12

Samplerate: 44100 Hz
Channels: 2
Bits per sample: 16
Bitrate: 747 kbps
Codec: FLAC

[CUETools log; Date: 07.10.2015 12:44:16; Version: 2.1.4]
[CTDB TOCID: 3ZVKfG.ZKXq8xpyWDccm7JbxrGM-] disk not present in database.
[AccurateRip ID: 000a9a40-003fae75-58096007] found.
Track [ CRC | V2 ] Status
01 fa330a4|985c266c (0+1/1) Accurately ripped
02 [dcaedcc0|11df8bb9] (0+1/1) Accurately ripped
03 [55742b98|f26a31bc] (0+1/1) Accurately ripped
04 [f130b5a7|2e8e5a73] (0+1/1) Accurately ripped
05 [1846bf46|eea91cbc] (0+1/1) Accurately ripped
06 [de939932|8fd581c8] (0+1/1) Accurately ripped
07 [7baf0ed1|ff9bd7fa] (0+1/1) Accurately ripped

Track Peak [ CRC32 ] [W/O NULL] [ LOG ]
-- 96,6 [1D3DCD11] [5824C7D8] CRC32
01 96,6 [43E66D60] [0BBA2E1B]
02 96,6 [C8473238] [2C8B377B]
03 96,6 [4F0CD4F0] [16343F8B]
04 96,6 [6CC1DFDD] [E7009346]
05 96,6 [00D3817C] [EDD06C6C]
06 96,6 [5D7B9C13] [35951CBF]
07 96,6 [9180ED2A] [4DAAB9CC]

Trouble - After The War (1970)

All thanks go to spAceLover

Download Trouble - After The War (1970):

DOWNLOAD LINKS:


No Password
Direct Download

Tags: Trouble

Trouble - After The War (1970) Download via Hotfile Rapidshare Fileserve Megaupload & FileSonic, Trouble - After The War (1970) free torrent downloads included crack, serial, keygen.Trouble - After The War (1970) Fast Download via Rapidshare Hotfile Fileserve Filesonic Megaupload, Trouble - After The War (1970) Torrents and Emule Download or anything related.
Leave a Comment
Your Name:
E-Mail:
Add Comments:

Enter Code: