Jayce Ogren - Rufus Wainwright: Prima Donna (2015)

Download Now

Jayce Ogren - Rufus Wainwright: Prima Donna (2015)

Jayce Ogren - Rufus Wainwright: Prima Donna (2015)
EAC Rip | Flac (Tracks + cue + log) | 525 MB | MP3 320Kbps CBR | 278 MB | 2 CDs | Full Scans
Genre: Classical | Label: Deutsche Grammophon | Catalog Number: 4795340

"Rufus has always had a deep-rooted passion for opera and has written his very first opera Prima Donna in 2009, which will now for the first time be recorded on disc! Prima Donna is slated for release on 11 September, tying in with concert performances of the opera in Europe and Asia. The 2nd album, which is on the significant release schedule, is a collection of songs based on Shakespeare sonnets, sung by Anna Prohaska, Rufus himself, and a surprise female guest star name to be announced soon"

"Reviews: Prima Donna, was written and performed during the most dramatic period of my life to date, and considering my life, that s pretty dramatic! New arrivals, death, terrible defeat and glorious triumph line the tale of this work both on stage and off, a tale that is still unfolding and that I would both like you to know and even more importantly, be a part of. --Rufus Wainwright

A love song to opera ... saturated in the musical styles of opera s golden age --The Times"


Tracklisting:

Disc: 1
1. Overture 6:07
2. Act I, Scene 1 - Oh! Madame Saint Laurent 3:01
3. Act I, Scene 2 - J'ai rêvé toute la nuit 2:59
4. Act I, Scene 3 - Merci. Asseyez-vous 1:38
5. Act I, Scene 4 - Ah! Les soucis! 1:10
6. Act I, Scene 5 - Aliénor, quelle femme merveilleuse 1:50
7. Act I, Scene 6 - Mais non, Madame! 2:51
8. Act I, Scene 7 - Mais que se passe-t-il donc 1:59
9. Act I, Scene 8 - À l époque, François 2:15
10. Act I, Scene 9 - Cet appartement 1:32
11. Act I, Scene 10 - Mon dieu qu'il est laid! 2:06
12. Act I, Scene 11 - À ton âge, François 2:42
13. Act I, Scene 12 - Voici Le Journaliste! 2:25
14. Act I, Scene 13 - Bonjour, Madame Saint Laurent 2:14
15. Act I, Scene 14 - Quand j étais jeune étudiant 3:10
16. Act I, Scene 15 - Madame Saint Laurent 1:15
17. Act I, Scene 16 - La Première ... 2:32
18. Act I, Scene 17 - Régine, quelle majesté 3:14
19. Act I, Scene 18 - Abandonne, pose ta couronne 3:05
20. Act I, Scene 19 - Charmant, tout à fait 2:10
21. Act I, Scene 20 - Oh, ma voix! 0:59
22. Act I, Scene 21 - Oh, ma douleur! 5:17
23. Act I, Scene 21 - Revenez donc ce soir - Scene 22 Interlude 1:55
24. Act I, Scene 23 - The Kiss 1:15

Exact Audio Copy V1.0 beta 3 from 29. August 2011

EAC extraction logfile from 27. September 2015, 12:51

Janis Kelly, Kathryn Guthrie, Antonio Figueroa, Richard Morrison, BBC Symphony Orchestra, Jayce Ogren / Prima Donna

Used drive : hp DVD RW AD-7251H5 Adapter: 0 ID: 1

Read mode : Secure
Utilize accurate stream : Yes
Defeat audio cache : Yes
Make use of C2 pointers : No

Read offset correction

: 48
Overread into Lead-In and Lead-Out : No
Fill up missing offset samples with silence : Yes
Delete leading and trailing silent blocks : No
Null samples used in CRC calculations : Yes
Used interface
: Native Win32 interface for Win NT & 2000
Gap handling
: Appended to previous track

Used output format : User Defined Encoder
Selected bitrate : 128 kBit/s
Quality : High
Add ID3 tag : No
Command line compressor : C:\Program Files (x86)\Exact Audio Copy\Flac\flac.exe
Additional command line options : -8 -V -T "ARTIST=%artist%" -T "TITLE=%title%" -T "ALBUM=%albumtitle%" -T "DATE=%year%" -T "TRACKNUMBER=%tracknr%" -T "GENRE=%genre%" -T "PERFORMER=%albuminterpret%" -T "COMPOSER=%composer%" %haslyrics%--tag-from-file=LYRICS="%lyricsfile%"%haslyrics% -T "ALBUMARTIST=%albumartist%" -T "DISCNUMBER=%cdnumber%" -T "TOTALDISCS=%totalcds%" -T "TOTALTRACKS=%numtracks%" -T "COMMENT=%comment%" %source% -o %dest%

TOC of the extracted CD Track | Start | Length | Start sector | End sector
--1 | 0:00.00 | 6:06.38 | 0 | 27487 2 | 6:06.38 | 3:01.07 | 27488 | 41069 3 | 9:07.45 | 2:58.69 | 41070 | 54488 4 | 12:06.39 | 1:37.49 | 54489 | 61812 5 | 13:44.13 | 1:10.05 | 61813 | 67067 6 | 14:54.18 | 1:50.26 | 67068 | 75343 7 | 16:44.44 | 2:51.02 | 75344 | 88170 8 | 19:35.46 | 1:58.52 | 88171 | 97072 9 | 21:34.23 | 2:15.08 | 97073 | 107205
10 | 23:49.31 | 1:31.73 | 107206 | 114103
11 | 25:21.29 | 2:05.39 | 114104 | 123517
12 | 27:26.68 | 2:41.74 | 123518 | 135666
13 | 30:08.67 | 2:24.50 | 135667 | 146516
14 | 32:33.42 | 2:13.38 | 146517 | 156529
15 | 34:47.05 | 3:09.69 | 156530 | 170773
16 | 37:56.74 | 1:15.26 | 170774 | 176424
17 | 39:12.25 | 2:31.68 | 176425 | 187817
18 | 41:44.18 | 3:14.27 | 187818 | 202394
19 | 44:58.45 | 3:05.14 | 202395 | 216283
20 | 48:03.59 | 2:10.03 | 216284 | 226036
21 | 50:13.62 | 0:58.43 | 226037 | 230429
22 | 51:12.30 | 5:17.29 | 230430 | 254233
23 | 56:29.59 | 1:55.02 | 254234 | 262860
24 | 58:24.61 | 1:15.08 | 262861 | 268493

Track 1 Filename M:\EAC\Prima Donna\01 - Jayce Ogren & BBC Symphony Orchestra - Act I- Overture .wav Pre-gap length 0:00:02.00 Peak level 97.7 %
Extraction speed 1.8 X
Track quality 99.9 %
Test CRC D94E8C9B
Copy CRC D94E8C9B
Track not present in AccurateRip database
Copy OK

Track 2 Filename M:\EAC\Prima Donna\02 - Jayce Ogren, BBC Symphony Orchestra & Janis Kelly - Act I- Scene 1- ''Oh, Madame Saint Laurent!'' .wav Peak level 58.2 %
Extraction speed 2.0 X
Track quality 100.0 %
Test CRC 85BF8627
Copy CRC 85BF8627
Track not present in AccurateRip database
Copy OK

Track 3 Filename M:\EAC\Prima Donna\03 - Janis Kelly, Jayce Ogren, BBC Symphony Orchestra & Kathryn Guthrie - Act I- Scene 2- Aria ''J'ai rêvé toute la nuit'' .wav Peak level 86.5 %
Extraction speed 1.8 X
Track quality 99.9 %
Test CRC 13A83B96
Copy CRC 13A83B96
Track not present in AccurateRip database
Copy OK

Track 4 Filename M:\EAC\Prima Donna\04 - Janis Kelly, Jayce Ogren, BBC Symphony Orchestra & Kathryn Guthrie - Act I- Scene 3- ''Merci. Asseyez-vous'' .wav Peak level 67.3 %
Extraction speed 2.0 X
Track quality 100.0 %
Test CRC 497EE113
Copy CRC 497EE113
Track not present in AccurateRip database
Copy OK

Track 5 Filename M:\EAC\Prima Donna\05 - Janis Kelly, Jayce Ogren, BBC Symphony Orchestra & Kathryn Guthrie - Act I- Scene 4- ''Ah! Les soucis!'' .wav Peak level 71.6 %
Extraction speed 1.3 X
Track quality 99.8 %
Test CRC 3B293F32
Copy CRC 3B293F32
Track not present in AccurateRip database
Copy OK

Track 6 Filename M:\EAC\Prima Donna\06 - Jayce Ogren, BBC Symphony Orchestra & Janis Kelly - Act I- Scene 5- ''Aliénor, quelle femme merveilleuse'' .wav Peak level 76.9 %
Extraction speed 2.2 X
Track quality 100.0 %
Test CRC 2C955096
Copy CRC 2C955096
Track not present in AccurateRip database
Copy OK

Track 7 Filename M:\EAC\Prima Donna\07 - Janis Kelly, Jayce Ogren, BBC Symphony Orchestra & Kathryn Guthrie - Act I- Scene 6- ''Mais non, Madame'' .wav Peak level 73.1 %
Extraction speed 2.5 X
Track quality 100.0 %
Test CRC B99F9815
Copy CRC B99F9815
Track not present in AccurateRip database
Copy OK

Track 8 Filename M:\EAC\Prima Donna\08 - Janis Kelly, Jayce Ogren, BBC Symphony Orchestra, Kathryn Guthrie & Richard Morrison - Act I- Scene 7- ''Mais que se passe-t-il donc'' .wav Peak level 94.9 %
Extraction speed 2.4 X
Track quality 100.0 %
Test CRC A65C9137
Copy CRC A65C9137
Track not present in AccurateRip database
Copy OK

Track 9 Filename M:\EAC\Prima Donna\09 - Jayce Ogren, BBC Symphony Orchestra & Richard Morrison - Act I- Scene 8- ''À l'époque, François'' .wav Peak level 52.3 %
Extraction speed 2.0 X
Track quality 99.9 %
Test CRC 293816BF
Copy CRC 293816BF
Track not present in AccurateRip database
Copy OK

Track 10 Filename M:\EAC\Prima Donna\10 - Jayce Ogren, BBC Symphony Orchestra & Richard Morrison - Act I- Scene 9- ''Cet appartement'' .wav Peak level 72.5 %
Extraction speed 1.7 X
Track quality 99.8 %
Test CRC 19B71EA5
Copy CRC 19B71EA5
Track not present in AccurateRip database
Copy OK

Track 11 Filename M:\EAC\Prima Donna\11 - Jayce Ogren, BBC Symphony Orchestra & Richard Morrison - Act I- Scene 10- ''Mon Dieu qu'il est laid!'' .wav Peak level 65.2 %
Extraction speed 2.0 X
Track quality 99.9 %
Test CRC 972C77D6
Copy CRC 972C77D6
Track not present in AccurateRip database
Copy OK

Track 12 Filename M:\EAC\Prima Donna\12 - Jayce Ogren, BBC Symphony Orchestra & Richard Morrison - Act I- Scene 11- ''À ton âge, François'' .wav Peak level 94.1 %
Extraction speed 2.3 X
Track quality 99.9 %
Test CRC 36CE50F8
Copy CRC 36CE50F8
Track not present in AccurateRip database
Copy OK

Track 13 Filename M:\EAC\Prima Donna\13 - Antonio Figueroa, Jayce Ogren, BBC Symphony Orchestra & Richard Morrison - Act I- Scene 12- ''Voici le journaliste!'' .wav Peak level 96.6 %
Extraction speed 2.8 X
Track quality 100.0 %
Test CRC 258C1380
Copy CRC 258C1380
Track not present in AccurateRip database
Copy OK

Track 14 Filename M:\EAC\Prima Donna\14 - Janis Kelly, Jayce Ogren, BBC Symphony Orchestra & Antonio Figueroa - Act I- Scene 13- ''Bonjour, Madame Saint Laurent'' .wav Peak level 89.4 %
Extraction speed 2.8 X
Track quality 100.0 %
Test CRC 1E8C25C6
Copy CRC 1E8C25C6
Track not present in AccurateRip database
Copy OK

Track 15 Filename M:\EAC\Prima Donna\15 - Janis Kelly, Jayce Ogren, BBC Symphony Orchestra & Antonio Figueroa - Act I- Scene 14- ''Quand j'étais jeune étudiant'' .wav Peak level 68.2 %
Extraction speed 2.6 X
Track quality 99.9 %
Test CRC 5AAE2F27
Copy CRC 5AAE2F27
Track not present in AccurateRip database
Copy OK

Track 16 Filename M:\EAC\Prima Donna\16 - Janis Kelly, Jayce Ogren, BBC Symphony Orchestra & Antonio Figueroa - Act I- Scene 15- ''Madame Saint Laurent'' .wav Peak level 72.0 %
Extraction speed 1.8 X
Track quality 99.8 %
Test CRC 85E708CB
Copy CRC 85E708CB
Track not present in AccurateRip database
Copy OK

Track 17 Filename M:\EAC\Prima Donna\17 - Janis Kelly, Jayce Ogren, BBC Symphony Orchestra, Kathryn Guthrie, Antonio Figueroa & Richard Morrison - Act I- Scene 16- ''La première.''.wav Peak level 81.1 %
Extraction speed 3.1 X
Track quality 100.0 %
Test CRC 0CF03A10
Copy CRC 0CF03A10
Track not present in AccurateRip database
Copy OK

Track 18 Filename M:\EAC\Prima Donna\18 - Janis Kelly, Jayce Ogren, BBC Symphony Orchestra & Antonio Figueroa - Act I- Scene 17- ''Régine, quelle majesté'' .wav Peak level 77.4 %
Extraction speed 3.3 X
Track quality 100.0 %
Test CRC CCE203FB
Copy CRC CCE203FB
Track not present in AccurateRip database
Copy OK

Track 19 Filename M:\EAC\Prima Donna\19 - Janis Kelly, Jayce Ogren, BBC Symphony Orchestra & Antonio Figueroa - Act I- Scene 18- Aria ''Abandonne, pose ta couronne'' .wav Peak level 86.2 %
Extraction speed 3.4 X
Track quality 100.0 %
Test CRC D1926C01
Copy CRC D1926C01
Track not present in AccurateRip database
Copy OK

Track 20 Filename M:\EAC\Prima Donna\20 - Janis Kelly, Jayce Ogren, BBC Symphony Orchestra & Antonio Figueroa - Act I- Scene 19- ''Charmant, tout à fait'' .wav Peak level 83.7 %
Extraction speed 3.2 X
Track quality 100.0 %
Test CRC 926EFA31
Copy CRC 926EFA31
Track not present in AccurateRip database
Copy OK

Track 21 Filename M:\EAC\Prima Donna\21 - Janis Kelly, Jayce Ogren, BBC Symphony Orchestra, Kathryn Guthrie & Richard Morrison - Act I- Scene 20- ''Oh, ma voix!'' .wav Peak level 92.9 %
Extraction speed 2.6 X
Track quality 100.0 %
Test CRC 4DA95EC4
Copy CRC 4DA95EC4
Track not present in AccurateRip database
Copy OK

Track 22 Filename M:\EAC\Prima Donna\22 - Janis Kelly, Jayce Ogren, BBC Symphony Orchestra, Kathryn Guthrie, Antonio Figueroa & Richard Morrison - Act I- Scene 21- ''Oh, ma douleur!''.wav Peak level 86.9 %
Extraction speed 3.4 X
Track quality 99.9 %
Test CRC C7EB6E2D
Copy CRC C7EB6E2D
Track not present in AccurateRip database
Copy OK

Track 23 Filename M:\EAC\Prima Donna\23 - Antonio Figueroa, Jayce Ogren, BBC Symphony Orchestra & Richard Morrison - Act I- ''Revenez donc ce soir'' - Scene 22- Interlude .wav Peak level 20.4 %
Extraction speed 3.3 X
Track quality 100.0 %
Test CRC D084B8A6
Copy CRC D084B8A6
Track not present in AccurateRip database
Copy OK

Track 24 Filename M:\EAC\Prima Donna\24 - Jayce Ogren & BBC Symphony Orchestra - Act I- Scene 23- The Kiss .wav Peak level 73.3 %
Extraction speed 2.9 X
Track quality 100.0 %
Test CRC 445CE2E2
Copy CRC 445CE2E2
Track not present in AccurateRip database
Copy OK

None of the tracks are present in the AccurateRip database

No errors occurred

End of status report

- CUETools DB Plugin V2.1.3

[CTDB TOCID: RGclQTTn8d.N5ShcHTJP1ZK_2YM-] disk not present in database, Submit result: RGclQTTn8d.N5ShcHTJP1ZK_2YM- has been uploaded

==== Log checksum 46681C0275EC187EE0697560C7F286F5BBA3D1C5BBD731FE3E391414D7DF6734 ====

Disc: 2
1. Overture 3:31
2. Act II, Scene 1 - Dans mon pays de Picardie 5:04
3. Act II, Scene 2 - Excuse-moi, Monsieur Philippe 4:09
4. Act II, Scene 3 - Vocalises 2:53
5. Act II, Scene 4 - Et maintenant, Aliénor, à nous deux 1:08
6. Act II, Scene 4 - Quand j étais jeune étudiante 5:43
7. Act II, Scene 5 - Dans ce jardin 9:54
8. Act II, Scene 6 - Meditation 6:11
9. Act II, Scene 7 - C'est impossible! 4:02
10. Act II, Scene 8 Maintenant, il est temps 3:30
11. Act II, Scene 9 - Je suis heureuse 3:48
12. Act II, Scene 10 - Prenez-le donc 6:11
13. Act II, Scene 11 - Final Interlude 5:13
14. Act II, Scene 12 - Brief Fireworks Music (percussion) & Les feux d'artifice 6:56*

Exact Audio Copy V1.0 beta 3 from 29. August 2011

EAC extraction logfile from 27. September 2015, 13:51

Janis Kelly, Kathryn Guthrie, Antonio Figueroa, Richard Morrison, BBC Symphony Orchestra, Jayce Ogren / Prima Donna

Used drive : hp DVD RW AD-7251H5 Adapter: 0 ID: 1

Read mode : Secure
Utilize accurate stream : Yes
Defeat audio cache : Yes
Make use of C2 pointers : No

Read offset correction

: 48
Overread into Lead-In and Lead-Out : No
Fill up missing offset samples with silence : Yes
Delete leading and trailing silent blocks : No
Null samples used in CRC calculations : Yes
Used interface
: Native Win32 interface for Win NT & 2000
Gap handling
: Appended to previous track

Used output format : User Defined Encoder
Selected bitrate : 128 kBit/s
Quality : High
Add ID3 tag : No
Command line compressor : C:\Program Files (x86)\Exact Audio Copy\Flac\flac.exe
Additional command line options : -8 -V -T "ARTIST=%artist%" -T "TITLE=%title%" -T "ALBUM=%albumtitle%" -T "DATE=%year%" -T "TRACKNUMBER=%tracknr%" -T "GENRE=%genre%" -T "PERFORMER=%albuminterpret%" -T "COMPOSER=%composer%" %haslyrics%--tag-from-file=LYRICS="%lyricsfile%"%haslyrics% -T "ALBUMARTIST=%albumartist%" -T "DISCNUMBER=%cdnumber%" -T "TOTALDISCS=%totalcds%" -T "TOTALTRACKS=%numtracks%" -T "COMMENT=%comment%" %source% -o %dest%

TOC of the extracted CD Track | Start | Length | Start sector | End sector
--1 | 0:00.00 | 3:31.04 | 0 | 15828 2 | 3:31.04 | 5:04.32 | 15829 | 38660 3 | 8:35.36 | 4:09.32 | 38661 | 57367 4 | 12:44.68 | 2:53.09 | 57368 | 70351 5 | 15:38.02 | 1:07.73 | 70352 | 75449 6 | 16:46.00 | 5:43.08 | 75450 | 101182 7 | 22:29.08 | 9:53.51 | 101183 | 145708 8 | 32:22.59 | 6:10.43 | 145709 | 173501 9 | 38:33.27 | 4:01.73 | 173502 | 191649
10 | 42:35.25 | 3:30.36 | 191650 | 207435
11 | 46:05.61 | 3:48.29 | 207436 | 224564
12 | 49:54.15 | 6:10.43 | 224565 | 252357
13 | 56:04.58 | 5:13.10 | 252358 | 275842
14 | 61:17.68 | 6:55.58 | 275843 | 307025

Track 1 Filename M:\EAC\Prima Donna\01 - Jayce Ogren & BBC Symphony Orchestra - Act II- Overture .wav Pre-gap length 0:00:02.00 Peak level 66.2 %
Extraction speed 2.0 X
Track quality 100.0 %
Test CRC E65A368D
Copy CRC E65A368D
Track not present in AccurateRip database
Copy OK

Track 2 Filename M:\EAC\Prima Donna\02 - Jayce Ogren, BBC Symphony Orchestra & Kathryn Guthrie - Act II- Scene 1- Song ''Dans mon pays de Picardie'' .wav Peak level 93.9 %
Extraction speed 2.1 X
Track quality 99.9 %
Test CRC FBD90ED9
Copy CRC FBD90ED9
Track not present in AccurateRip database
Copy OK

Track 3 Filename M:\EAC\Prima Donna\03 - Kathryn Guthrie, Jayce Ogren, BBC Symphony Orchestra & Richard Morrison - Act II- Scene 2- ''Excusez-moi, Monsieur Philippe'' .wav Peak level 80.4 %
Extraction speed 2.5 X
Track quality 100.0 %
Test CRC 0B9ABF76
Copy CRC 0B9ABF76
Track not present in AccurateRip database
Copy OK

Track 4 Filename M:\EAC\Prima Donna\04 - Jayce Ogren, BBC Symphony Orchestra & Janis Kelly - Act II- Scene 3- Vocalises .wav Peak level 79.5 %
Extraction speed 2.5 X
Track quality 100.0 %
Test CRC 79601357
Copy CRC 79601357
Track not present in AccurateRip database
Copy OK

Track 5 Filename M:\EAC\Prima Donna\05 - Jayce Ogren, BBC Symphony Orchestra & Janis Kelly - Act II- Scene 4- ''Et maintenant, Aliénor, à nous deux'' .wav Peak level 74.2 %
Extraction speed 1.9 X
Track quality 100.0 %
Test CRC 8AF54746
Copy CRC 8AF54746
Track not present in AccurateRip database
Copy OK

Track 6 Filename M:\EAC\Prima Donna\06 - Jayce Ogren, BBC Symphony Orchestra & Janis Kelly - Act II- Aria ''Quand j'étais jeune étudiante'' .wav Peak level 80.3 %
Extraction speed 2.9 X
Track quality 100.0 %
Test CRC 308B6528
Copy CRC 308B6528
Track not present in AccurateRip database
Copy OK

Track 7 Filename M:\EAC\Prima Donna\07 - Janis Kelly, Jayce Ogren, BBC Symphony Orchestra & Antonio Figueroa - Act II- Scene 5- Duet ''Dans ce jardin'' .wav Peak level 100.0 %
Extraction speed 3.4 X
Track quality 100.0 %
Test CRC 7D208A1C
Copy CRC 7D208A1C
Track not present in AccurateRip database
Copy OK

Track 8 Filename M:\EAC\Prima Donna\08 - Jayce Ogren & BBC Symphony Orchestra - Act II- Scene 6- Meditation .wav Peak level 91.3 %
Extraction speed 3.5 X
Track quality 100.0 %
Test CRC 6097ABDB
Copy CRC 6097ABDB
Track not present in AccurateRip database
Copy OK

Track 9 Filename M:\EAC\Prima Donna\09 - Janis Kelly, Jayce Ogren, BBC Symphony Orchestra, Kathryn Guthrie & Richard Morrison - Act II- Scene 7- ''C'est impossible!'' .wav Peak level 98.4 %
Extraction speed 3.5 X
Track quality 100.0 %
Test CRC 86EC6C27
Copy CRC 86EC6C27
Track not present in AccurateRip database
Copy OK

Track 10 Filename M:\EAC\Prima Donna\10 - Kathryn Guthrie, Jayce Ogren, BBC Symphony Orchestra, Antonio Figueroa & Richard Morrison - Act II- Scene 8- ''Maintenant, il est temps''.wav Peak level 51.1 %
Extraction speed 3.0 X
Track quality 99.9 %
Test CRC 5421F8B5
Copy CRC 5421F8B5
Track not present in AccurateRip database
Copy OK

Track 11 Filename M:\EAC\Prima Donna\11 - Janis Kelly, Jayce Ogren, BBC Symphony Orchestra, Kathryn Guthrie & Antonio Figueroa - Act II- Scene 9- ''Je suis heureuse'' .wav Peak level 95.3 %
Extraction speed 3.1 X
Track quality 99.9 %
Test CRC EC76EC8F
Copy CRC EC76EC8F
Track not present in AccurateRip database
Copy OK

Track 12 Filename M:\EAC\Prima Donna\12 - Jayce Ogren, BBC Symphony Orchestra & Janis Kelly - Act II- Scene 10- Aria ''Prenez-le donc'' .wav Peak level 81.0 %
Extraction speed 4.1 X
Track quality 100.0 %
Test CRC C4B07628
Copy CRC C4B07628
Track not present in AccurateRip database
Copy OK

Track 13 Filename M:\EAC\Prima Donna\13 - Jayce Ogren & BBC Symphony Orchestra - Act II- Scene 11- Final Interlude .wav Peak level 95.8 %
Extraction speed 4.1 X
Track quality 100.0 %
Test CRC 59945D1A
Copy CRC 59945D1A
Track not present in AccurateRip database
Copy OK

Track 14 Filename M:\EAC\Prima Donna\14 - Jayce Ogren, BBC Symphony Orchestra & Janis Kelly - Act II- Scene 12- Brief Fireworks Music (Percussion) - Aria ''Les feux d'artifice'' .wav Peak level 79.5 %
Extraction speed 4.4 X
Track quality 100.0 %
Test CRC 78962507
Copy CRC 78962507
Track not present in AccurateRip database
Copy OK

None of the tracks are present in the AccurateRip database

No errors occurred

End of status report

- CUETools DB Plugin V2.1.3

[CTDB TOCID: X0uzemOeiZMnVneP9BOLOX6z270-] disk not present in database, Submit result: X0uzemOeiZMnVneP9BOLOX6z270- has been uploaded

==== Log checksum 47B6F04A99442FA4DC5C731AAD04C64896E685F00729FE7355FFCBF61E082BDF ====

Thanks to the original releaser
DOWNLOAD:
Buy Premium To Support Me & Get Resumable Support & Max Speed


Links are Interchangeable - No Password
Direct Download

Tags: Wainwright

Jayce Ogren - Rufus Wainwright: Prima Donna (2015) Download via Hotfile Rapidshare Fileserve Megaupload & FileSonic, Jayce Ogren - Rufus Wainwright: Prima Donna (2015) free torrent downloads included crack, serial, keygen.Jayce Ogren - Rufus Wainwright: Prima Donna (2015) Fast Download via Rapidshare Hotfile Fileserve Filesonic Megaupload, Jayce Ogren - Rufus Wainwright: Prima Donna (2015) Torrents and Emule Download or anything related.
Leave a Comment
Your Name:
E-Mail:
Add Comments:

Enter Code: