Mötley Crüe - Live at Rock in Rio 2015 [HDTV, 720p]

Download Now

Mötley Crüe - Live at Rock in Rio 2015 [HDTV, 720p]

Mötley Crüe - Live at Rock in Rio 2015
MKV, H.264 1280x720 16:9, 3,869Kbps, 29.970fps | AC3 384kbps, 48kHz, 6ch
Hard Rock / Glam Metal | 01:15:00 | ~ 2.42 Gb

~ Mötley Crüe performing on September 19, 2015 at Rock In Rio Music Festival ~




Tracklist:

1 Girls, girls, girls
2 Wildside
3 Primal scream
4 SOS
5 Dont'go away
6 Smokin'
7 Looks that kill
8 Anarchy
9 [email protected] devil (w/ intro)(Shrot guitar solo)
10 Sola
11 Livewire
12 Feelgood
13 Kickstart
14 Home sweet home

General
Unique ID
: 239416153791738606507190608689530537911 (0xB41DDFBCDFFC384D832F00349A5E07B7)
Complete name : G:\UP\Mix\Motley.Crue.Rock.in.Rio.2015\Motley.Crue.Rock.in.Rio.2015.720p.HDTV-ENiO.mkv
Format
: Matroska
Format version : Version 4 / Version 2
File size
: 2.29 GiB
Duration
: 1h 15mn
Overall bit rate mode : Variable
Overall bit rate : 4 339 Kbps
Encoded date : UTC 2015-09-20 04:08:39
Writing application

: mkvmerge v8.3.0 ('Over the Horizon') 64bit
Writing library : libebml v1.3.1 + libmatroska v1.4.2
DURATION
: 01:15:42.112000000
NUMBER_OF_FRAMES : 141941
NUMBER_OF_BYTES : 218021376
_STATISTICS_WRITING_APP : mkvmerge v8.3.0 ('Over the Horizon') 64bit
_STATISTICS_WRITING_DATE_UTC : 2015-09-20 04:08:39
_STATISTICS_TAGS : BPS DURATION NUMBER_OF_FRAMES NUMBER_OF_BYTES

Video
ID : 1
Format
: AVC
Format/Info
: Advanced Video Codec
Format profile : [email protected]
Format settings, CABAC : No
Format settings, ReFrames : 2 frames
Codec ID
: V_MPEG4/ISO/AVC
Duration
: 1h 15mn
Bit rate mode : Variable
Bit rate
: 3 869 Kbps
Maximum bit rate : 4 000 Kbps
Width
: 1 280 pixels
Height
: 720 pixels
Display aspect ratio : 16:9
Frame rate mode : Constant
Frame rate
: 29.970 fps
Standard
: NTSC
Color space
: YUV
Chroma subsampling

: 4:2:0
Bit depth
: 8 bits
Scan type
: Progressive
Bits/(Pixel*Frame)

: 0.140
Stream size
: 2.05 GiB (89%)
Language
: English
Default
: Yes
Forced
: No
Color primaries : BT.709
Transfer characteristics : BT.709
Matrix coefficients

: BT.709

Audio
ID : 2
Format
: AC-3
Format/Info
: Audio Coding 3
Mode extension : CM (complete main)
Format settings, Endianness : Big
Codec ID
: A_AC3
Duration
: 1h 15mn
Bit rate mode : Constant
Bit rate
: 384 Kbps
Channel(s)
: 6 channels
Channel positions: Front: L C R, Side: L R, LFE
Sampling rate : 48.0 KHz
Bit depth
: 16 bits
Compression mode : Lossy
Stream size
: 208 MiB (9%)
Language
: English
Default
: Yes
Forced
: No

Mötley Crüe - Live at Rock in Rio 2015 [HDTV, 720p]

Mötley Crüe - Live at Rock in Rio 2015 [HDTV, 720p]

Mötley Crüe - Live at Rock in Rio 2015 [HDTV, 720p]

Mötley Crüe - Live at Rock in Rio 2015 [HDTV, 720p]

Mötley Crüe - Live at Rock in Rio 2015 [HDTV, 720p]

All thanks go to dudugames



Download Mötley Crüe - Live at Rock in Rio 2015:

Download Links:
(Premium Recommended)


All above links are interchangable. No password
Direct Download

Mötley Crüe - Live at Rock in Rio 2015 [HDTV, 720p] Download via Hotfile Rapidshare Fileserve Megaupload & FileSonic, Mötley Crüe - Live at Rock in Rio 2015 [HDTV, 720p] free torrent downloads included crack, serial, keygen.Mötley Crüe - Live at Rock in Rio 2015 [HDTV, 720p] Fast Download via Rapidshare Hotfile Fileserve Filesonic Megaupload, Mötley Crüe - Live at Rock in Rio 2015 [HDTV, 720p] Torrents and Emule Download or anything related.
Leave a Comment
Your Name:
E-Mail:
Add Comments:

Enter Code: