Oscar Aleman - Swing Guitar Masterpieces 1938-1957 (1998) 2CD

Download Now

Oscar Aleman - Swing Guitar Masterpieces 1938-1957 (1998) 2CD

Oscar Alemán - Swing Guitar Masterpieces 1938-1957 (1998) 2CD
EAC | FLAC | Tracks (Cue&Log) ~ 510 Mb (incl 5%) | Mp3 (CBR320) ~ 361 Mb (incl 5%) | Scans included
Genre: Guitar Jazz, Swing | Label: Acoustic Disc | # ACD-29 | Time: 02:25:02

"Oscar Alemán is one of the great unknown talents in jazz history. A brilliant guitarist who sounded very close to Django Reinhardt at times, Alemán was overshadowed in Europe by Reinhardt in the 1930s and spent much of the rest of his career in his native Argentina, remaining well known only in that country. This 1998 double CD from Dave Grisman's Acoustic Disc label has highlights from Alemán's career, including the eight selections he recorded during his three European sessions of 1938-1939, plus music from 1941-1947 and 1951-1954. Although the settings varied (including a sextet with violinist Svend Asmussen, a nonet, and two unaccompanied guitar solos), Alemán's basic swing style stayed the same, retaining its enthusiasm and creativity and remaining unaffected by bop. Sticking throughout to acoustic guitar and taking an occasional good-time vocal, Alemán is heard in peak form. He deserves to be much better known. A definitive two-fer from a major talent."



Tracklist:

CD1:

01. Sweet Sue (02:47)
02. Limehouse Blues (02:47)
03. Nobody's Sweetheart (02:20)
04. Whispering (02:47)
05. Russian Lullaby (02:58)
06. Just a Little Swing (02:23)
07. Dear Old Southland (02:57)
08. Jeeper Creepers (02:30)
09. Sweet Georgia Brown (03:14)
10. In the Mood (03:16)
11. Hombre Mio (Man of Mine) (03:12)
12. I've Got Rhythm (03:16)
13. Begin the Beguine (02:53)
14. Bye Bye Blues (03:07)
15. Negra de Cabello Duro (02:31)
16. Besame Mucho (02:35)
17. Tico Tico No Fuba (02:50)
18. Temptation (02:47)
19. I Never Knew (02:58)
20. Caminos Cruzados (Malaguena) (02:27)
21. Limehouse Blues (02:41)
22. Scartunas (02:54)
23. You Made Me Love You (03:02)
24. Cherokee (03:13)
25. Stardust (02:46)
26. Honeysuckle Rose (02:32)

CD2:

01. Lady Be Good (02:25)
02. Doin' the New Lowdown (02:35)
03. Improvisaciones Sobre Boogie Woogie (02:35)
04. Swingin' on a Star (02:27)
05. Melancolia (02:45)
06. Sentimental Journey (02:23)
07. Como Te Llamas (02:39)
08. Bugle Call Rag (02:51)
09. Darktown Strutter's Ball (02:52)
10. I'm Beginning to See the Light (02:34)
11. Blue Skies (02:35)
12. Twelfth Street Rag (02:43)
13. Diga Diga Do (02:51)
14. Swanee River (02:49)
15. Vieni Sul Mar (03:02)
16. Delicado (03:04)
17. Scartunas (02:29)
18. Mia Casita Pequenita (02:57)
19. Crazy Rhythm (02:24)
20. Daphne (01:54)
21. Dolores (03:19)
22. April in Portugal (02:41)
23. You Belong to Me (03:07)
24. Who's Sorry Now? (02:50)
25. Tiger Rag (02:48)
26. Tea for Two (03:14)


Exact Audio Copy V1.0 beta 4 from 7. December 2014

EAC extraction logfile from 25. January 2015, 19:36

Oscar Aleman / Swing Guitar Masterpieces 1938-1957 (disc 1)

Used drive : HP DVD Writer 1040r Adapter: 1 ID: 0

Read mode : Secure
Utilize accurate stream : Yes
Defeat audio cache : Yes
Make use of C2 pointers : No

Read offset correction

: 6
Overread into Lead-In and Lead-Out : No
Fill up missing offset samples with silence : Yes
Delete leading and trailing silent blocks : No
Null samples used in CRC calculations : Yes
Used interface
: Native Win32 interface for Win NT & 2000
Gap handling
: Appended to previous track

Used output format : User Defined Encoder
Selected bitrate : 1024 kBit/s
Quality : High
Add ID3 tag : No
Command line compressor : K:\Program Files (x86)\Exact Audio Copy\Flac\flac.exe
Additional command line options : -8 -V -T "ARTIST=%artist%" -T "TITLE=%title%" -T "ALBUM=%albumtitle%" -T "DATE=%year%" -T "TRACKNUMBER=%tracknr%" -T "GENRE=%genre%" -T "PERFORMER=%albuminterpret%" -T "COMPOSER=%composer%" %haslyrics%--tag-from-file=LYRICS="%lyricsfile%"%haslyrics% -T "ALBUMARTIST=%albumartist%" -T "DISCNUMBER=%cdnumber%" -T "TOTALDISCS=%totalcds%" -T "TOTALTRACKS=%numtracks%" -T "COMMENT=%comment%" %source% -o %dest%

TOC of the extracted CD Track | Start | Length | Start sector | End sector
--1 | 0:00.00 | 2:47.60 | 0 | 12584 2 | 2:47.60 | 2:47.57 | 12585 | 25166 3 | 5:35.42 | 2:20.50 | 25167 | 35716 4 | 7:56.17 | 2:47.03 | 35717 | 48244 5 | 10:43.20 | 2:58.57 | 48245 | 61651 6 | 13:42.02 | 2:23.30 | 61652 | 72406 7 | 16:05.32 | 2:57.65 | 72407 | 85746 8 | 19:03.22 | 2:30.20 | 85747 | 97016 9 | 21:33.42 | 3:14.33 | 97017 | 111599
10 | 24:48.00 | 3:16.57 | 111600 | 126356
11 | 28:04.57 | 3:12.48 | 126357 | 140804
12 | 31:17.30 | 3:16.20 | 140805 | 155524
13 | 34:33.50 | 2:53.12 | 155525 | 168511
14 | 37:26.62 | 3:07.53 | 168512 | 182589
15 | 40:34.40 | 2:31.67 | 182590 | 193981
16 | 43:06.32 | 2:35.02 | 193982 | 205608
17 | 45:41.34 | 2:50.71 | 205609 | 218429
18 | 48:32.30 | 2:47.07 | 218430 | 230961
19 | 51:19.37 | 2:58.60 | 230962 | 244371
20 | 54:18.22 | 2:27.53 | 244372 | 255449
21 | 56:46.00 | 2:41.65 | 255450 | 267589
22 | 59:27.65 | 2:54.42 | 267590 | 280681
23 | 62:22.32 | 3:02.40 | 280682 | 294371
24 | 65:24.72 | 3:13.60 | 294372 | 308906
25 | 68:38.57 | 2:46.10 | 308907 | 321366
26 | 71:24.67 | 2:32.40 | 321367 | 332806

Track 1 Filename E:\EAC2\Oscar Aleman - Swing Guitar Masterpieces 1938-1957 (disc 1) (1998) [FLAC] {Acoustic Disc)\01 Sweet Sue.wav Pre-gap length 0:00:02.00 Peak level 92.2 %
Extraction speed 1.9 X
Track quality 100.0 %
Test CRC 2794C1BD
Copy CRC 2794C1BD
Accurately ripped (confidence 2) [2AC7F96F] (AR v2)
Copy OK

Track 2 Filename E:\EAC2\Oscar Aleman - Swing Guitar Masterpieces 1938-1957 (disc 1) (1998) [FLAC] {Acoustic Disc)\02 Limehouse Blues.wav Pre-gap length 0:00:02.57 Peak level 94.1 %
Extraction speed 2.0 X
Track quality 100.0 %
Test CRC 3A12E856
Copy CRC 3A12E856
Accurately ripped (confidence 2) [0ADD8AF9] (AR v2)
Copy OK

Track 3 Filename E:\EAC2\Oscar Aleman - Swing Guitar Masterpieces 1938-1957 (disc 1) (1998) [FLAC] {Acoustic Disc)\03 Nobody's Sweetheart.wav Pre-gap length 0:00:02.53 Peak level 94.9 %
Extraction speed 2.0 X
Track quality 100.0 %
Test CRC 64161A36
Copy CRC 64161A36
Accurately ripped (confidence 2) [C46A515F] (AR v2)
Copy OK

Track 4 Filename E:\EAC2\Oscar Aleman - Swing Guitar Masterpieces 1938-1957 (disc 1) (1998) [FLAC] {Acoustic Disc)\04 Whispering.wav Pre-gap length 0:00:02.56 Peak level 81.4 %
Extraction speed 2.2 X
Track quality 100.0 %
Test CRC 5424C288
Copy CRC 5424C288
Accurately ripped (confidence 2) [AD898C9D] (AR v2)
Copy OK

Track 5 Filename E:\EAC2\Oscar Aleman - Swing Guitar Masterpieces 1938-1957 (disc 1) (1998) [FLAC] {Acoustic Disc)\05 Russian Lullaby.wav Pre-gap length 0:00:02.57 Peak level 88.4 %
Extraction speed 2.4 X
Track quality 100.0 %
Test CRC B0A28DC7
Copy CRC B0A28DC7
Accurately ripped (confidence 2) [98FB6C54] (AR v2)
Copy OK

Track 6 Filename E:\EAC2\Oscar Aleman - Swing Guitar Masterpieces 1938-1957 (disc 1) (1998) [FLAC] {Acoustic Disc)\06 Just A Little Swing.wav Pre-gap length 0:00:02.56 Peak level 89.7 %
Extraction speed 1.8 X
Track quality 99.9 %
Test CRC B21E3F60
Copy CRC B21E3F60
Accurately ripped (confidence 2) [D3595CF9] (AR v2)
Copy OK

Track 7 Filename E:\EAC2\Oscar Aleman - Swing Guitar Masterpieces 1938-1957 (disc 1) (1998) [FLAC] {Acoustic Disc)\07 Dear Old Southland.wav Pre-gap length 0:00:02.56 Peak level 81.2 %
Extraction speed 2.6 X
Track quality 100.0 %
Test CRC BD8FBE0C
Copy CRC BD8FBE0C
Accurately ripped (confidence 2) [ABC6DDAF] (AR v2)
Copy OK

Track 8 Filename E:\EAC2\Oscar Aleman - Swing Guitar Masterpieces 1938-1957 (disc 1) (1998) [FLAC] {Acoustic Disc)\08 Jeeper Creepers.wav Pre-gap length 0:00:02.57 Peak level 94.5 %
Extraction speed 2.6 X
Track quality 100.0 %
Test CRC 799B68AE
Copy CRC 799B68AE
Accurately ripped (confidence 2) [77CAEE13] (AR v2)
Copy OK

Track 9 Filename E:\EAC2\Oscar Aleman - Swing Guitar Masterpieces 1938-1957 (disc 1) (1998) [FLAC] {Acoustic Disc)\09 Sweet Georgia Brown.wav Pre-gap length 0:00:02.56 Peak level 89.6 %
Extraction speed 2.8 X
Track quality 100.0 %
Test CRC 85EA8A59
Copy CRC 85EA8A59
Accurately ripped (confidence 2) [EC40B0D8] (AR v2)
Copy OK

Track 10 Filename E:\EAC2\Oscar Aleman - Swing Guitar Masterpieces 1938-1957 (disc 1) (1998) [FLAC] {Acoustic Disc)\10 In The Mood.wav Pre-gap length 0:00:02.57 Peak level 96.6 %
Extraction speed 2.9 X
Track quality 100.0 %
Test CRC E511991E
Copy CRC E511991E
Accurately ripped (confidence 2) [C99F61E2] (AR v2)
Copy OK

Track 11 Filename E:\EAC2\Oscar Aleman - Swing Guitar Masterpieces 1938-1957 (disc 1) (1998) [FLAC] {Acoustic Disc)\11 Hombre Mio (Man Of Mine).wav Pre-gap length 0:00:02.56 Peak level 91.3 %
Extraction speed 3.0 X
Track quality 100.0 %
Test CRC C5A2941F
Copy CRC C5A2941F
Accurately ripped (confidence 2) [D696D0CB] (AR v2)
Copy OK

Track 12 Filename E:\EAC2\Oscar Aleman - Swing Guitar Masterpieces 1938-1957 (disc 1) (1998) [FLAC] {Acoustic Disc)\12 I've Got Rhythm.wav Pre-gap length 0:00:02.57 Peak level 90.6 %
Extraction speed 3.1 X
Track quality 100.0 %
Test CRC 61C33A32
Copy CRC 61C33A32
Accurately ripped (confidence 2) [69CB8BB4] (AR v2)
Copy OK

Track 13 Filename E:\EAC2\Oscar Aleman - Swing Guitar Masterpieces 1938-1957 (disc 1) (1998) [FLAC] {Acoustic Disc)\13 Begin The Beguine.wav Pre-gap length 0:00:02.57 Peak level 76.5 %
Extraction speed 3.1 X
Track quality 100.0 %
Test CRC CFD5E4F4
Copy CRC CFD5E4F4
Accurately ripped (confidence 2) [766C7393] (AR v2)
Copy OK

Track 14 Filename E:\EAC2\Oscar Aleman - Swing Guitar Masterpieces 1938-1957 (disc 1) (1998) [FLAC] {Acoustic Disc)\14 Bye Bye Blues.wav Pre-gap length 0:00:02.56 Peak level 89.6 %
Extraction speed 3.3 X
Track quality 100.0 %
Test CRC BE28AEAF
Copy CRC BE28AEAF
Accurately ripped (confidence 2) [F4AAE9CC] (AR v2)
Copy OK

Track 15 Filename E:\EAC2\Oscar Aleman - Swing Guitar Masterpieces 1938-1957 (disc 1) (1998) [FLAC] {Acoustic Disc)\15 Negra De Cabello Duro.wav Pre-gap length 0:00:02.57 Peak level 92.2 %
Extraction speed 3.3 X
Track quality 100.0 %
Test CRC 7799F4E7
Copy CRC 7799F4E7
Accurately ripped (confidence 2) [45146684] (AR v2)
Copy OK

Track 16 Filename E:\EAC2\Oscar Aleman - Swing Guitar Masterpieces 1938-1957 (disc 1) (1998) [FLAC] {Acoustic Disc)\16 Besame Mucho.wav Pre-gap length 0:00:02.56 Peak level 96.6 %
Extraction speed 2.3 X
Track quality 99.9 %
Test CRC A712586F
Copy CRC A712586F
Accurately ripped (confidence 2) [450C1D56] (AR v2)
Copy OK

Track 17 Filename E:\EAC2\Oscar Aleman - Swing Guitar Masterpieces 1938-1957 (disc 1) (1998) [FLAC] {Acoustic Disc)\17 Tico Tico No Fuba.wav Pre-gap length 0:00:02.25 Peak level 94.0 %
Extraction speed 2.4 X
Track quality 99.9 %
Test CRC 9CA4C4AA
Copy CRC 9CA4C4AA
Accurately ripped (confidence 2) [531B9BEB] (AR v2)
Copy OK

Track 18 Filename E:\EAC2\Oscar Aleman - Swing Guitar Masterpieces 1938-1957 (disc 1) (1998) [FLAC] {Acoustic Disc)\18 Temptation.wav Pre-gap length 0:00:02.57 Peak level 86.4 %
Extraction speed 3.5 X
Track quality 100.0 %
Test CRC C9DC7CF6
Copy CRC C9DC7CF6
Accurately ripped (confidence 2) [2BE3ECE6] (AR v2)
Copy OK

Track 19 Filename E:\EAC2\Oscar Aleman - Swing Guitar Masterpieces 1938-1957 (disc 1) (1998) [FLAC] {Acoustic Disc)\19 I Never Knew.wav Pre-gap length 0:00:02.56 Peak level 96.2 %
Extraction speed 3.6 X
Track quality 100.0 %
Test CRC F9C2FEC2
Copy CRC F9C2FEC2
Accurately ripped (confidence 2) [3F8D20E1] (AR v2)
Copy OK

Track 20 Filename E:\EAC2\Oscar Aleman - Swing Guitar Masterpieces 1938-1957 (disc 1) (1998) [FLAC] {Acoustic Disc)\20 Caminos Cruzados (Malaguena).wav Pre-gap length 0:00:02.56 Peak level 92.9 %
Extraction speed 2.3 X
Track quality 99.9 %
Test CRC AF2E1764
Copy CRC AF2E1764
Accurately ripped (confidence 2) [4BAB5677] (AR v2)
Copy OK

Track 21 Filename E:\EAC2\Oscar Aleman - Swing Guitar Masterpieces 1938-1957 (disc 1) (1998) [FLAC] {Acoustic Disc)\21 Limehouse Blues.wav Pre-gap length 0:00:02.57 Peak level 91.0 %
Extraction speed 3.7 X
Track quality 100.0 %
Test CRC 1B800A8C
Copy CRC 1B800A8C
Accurately ripped (confidence 2) [A050FE29] (AR v2)
Copy OK

Track 22 Filename E:\EAC2\Oscar Aleman - Swing Guitar Masterpieces 1938-1957 (disc 1) (1998) [FLAC] {Acoustic Disc)\22 Scartunas.wav Pre-gap length 0:00:02.57 Peak level 79.5 %
Extraction speed 3.8 X
Track quality 100.0 %
Test CRC E5F1F5B4
Copy CRC E5F1F5B4
Accurately ripped (confidence 2) [6BCB43CD] (AR v2)
Copy OK

Track 23 Filename E:\EAC2\Oscar Aleman - Swing Guitar Masterpieces 1938-1957 (disc 1) (1998) [FLAC] {Acoustic Disc)\23 You Made Me Love You.wav Pre-gap length 0:00:02.56 Peak level 82.3 %
Extraction speed 4.0 X
Track quality 100.0 %
Test CRC B94CF8B2
Copy CRC B94CF8B2
Accurately ripped (confidence 2) [03FC4BAB] (AR v2)
Copy OK

Track 24 Filename E:\EAC2\Oscar Aleman - Swing Guitar Masterpieces 1938-1957 (disc 1) (1998) [FLAC] {Acoustic Disc)\24 Cherokee.wav Pre-gap length 0:00:02.56 Peak level 91.3 %
Extraction speed 4.0 X
Track quality 100.0 %
Test CRC 89C6D0D8
Copy CRC 89C6D0D8
Accurately ripped (confidence 2) [71EDC21C] (AR v2)
Copy OK

Track 25 Filename E:\EAC2\Oscar Aleman - Swing Guitar Masterpieces 1938-1957 (disc 1) (1998) [FLAC] {Acoustic Disc)\25 Stardust.wav Pre-gap length 0:00:02.56 Peak level 87.4 %
Extraction speed 4.0 X
Track quality 100.0 %
Test CRC 3A5BE106
Copy CRC 3A5BE106
Accurately ripped (confidence 2) [10B803D2] (AR v2)
Copy OK

Track 26 Filename E:\EAC2\Oscar Aleman - Swing Guitar Masterpieces 1938-1957 (disc 1) (1998) [FLAC] {Acoustic Disc)\26 Honeysuckle Rose.wav Pre-gap length 0:00:02.60 Peak level 85.5 %
Extraction speed 0.3 X
Track quality 99.5 %
Test CRC F7037A9D
Copy CRC F7037A9D
Accurately ripped (confidence 2) [2DB740E7] (AR v2)
Copy OK

All tracks accurately ripped

No errors occurred

End of status report

- CUETools DB Plugin V2.1.4

[CTDB TOCID: K_ubj2No8f5CjQUvS7IMTbCPC.U-] found
Submit result: K_ubj2No8f5CjQUvS7IMTbCPC.U- has been confirmed
Track | CTDB Status
1 | (1/1) Accurately ripped
2 | (1/1) Accurately ripped
3 | (1/1) Accurately ripped
4 | (1/1) Accurately ripped
5 | (1/1) Accurately ripped
6 | (1/1) Accurately ripped
7 | (1/1) Accurately ripped
8 | (1/1) Accurately ripped
9 | (1/1) Accurately ripped
10 | (1/1) Accurately ripped
11 | (1/1) Accurately ripped
12 | (1/1) Accurately ripped
13 | (1/1) Accurately ripped
14 | (1/1) Accurately ripped
15 | (1/1) Accurately ripped
16 | (1/1) Accurately ripped
17 | (1/1) Accurately ripped
18 | (1/1) Accurately ripped
19 | (1/1) Accurately ripped
20 | (1/1) Accurately ripped
21 | (1/1) Accurately ripped
22 | (1/1) Accurately ripped
23 | (1/1) Accurately ripped
24 | (1/1) Accurately ripped
25 | (1/1) Accurately ripped
26 | (1/1) Accurately ripped

==== Log checksum 8897D8A245AEF41A051FF4A4764660035343FD2EDE157F74C78EB4FED3E4C58E ====

foobar2000 1.2 / Dynamic Range Meter 1.1.1
log date: 2015-10-07 15:57:26

Analyzed: Oscar Aleman / Swing Guitar Masterpieces 1938-1957 CD1

DR Peak RMS Duration Track

DR10 -0.70 dB -12.99 dB 2:48 01-Sweet Sue
DR10 -0.53 dB -13.24 dB 2:48 02-Limehouse Blues
DR10 -0.45 dB -13.23 dB 2:21 03-Nobody's Sweetheart
DR11 -1.78 dB -15.71 dB 2:47 04-Whispering
DR10 -1.07 dB -13.81 dB 2:59 05-Russian Lullaby
DR10 -0.94 dB -13.17 dB 2:23 06-Just a Little Swing
DR10 -1.80 dB -14.19 dB 2:58 07-Dear Old Southland
DR9 -0.49 dB -12.70 dB 2:30 08-Jeeper Creepers
DR14 -0.95 dB -16.13 dB 3:14 09-Sweet Georgia Brown
DR13 -0.30 dB -15.93 dB 3:17 10-In the Mood
DR13 -0.78 dB -15.56 dB 3:13 11-Hombre Mio (Man of Mine)
DR13 -0.85 dB -15.86 dB 3:16 12-I've Got Rhythm
DR14 -2.32 dB -19.66 dB 2:53 13-Begin the Beguine
DR12 -0.95 dB -15.49 dB 3:08 14-Bye Bye Blues
DR11 -0.71 dB -13.16 dB 2:32 15-Negra de Cabello Duro
DR13 -0.30 dB -15.21 dB 2:35 16-Besame Mucho
DR12 -0.53 dB -15.02 dB 2:51 17-Tico Tico No Fuba
DR15 -1.27 dB -18.28 dB 2:47 18-Temptation
DR10 -0.33 dB -11.94 dB 2:59 19-I Never Knew
DR12 -0.64 dB -15.50 dB 2:28 20-Caminos Cruzados (Malaguena)
DR11 -0.82 dB -14.15 dB 2:42 21-Limehouse Blues
DR13 -1.99 dB -16.74 dB 2:55 22-Scartunas
DR12 -1.68 dB -16.01 dB 3:03 23-You Made Me Love You
DR11 -0.79 dB -15.05 dB 3:14 24-Cherokee
DR14 -1.16 dB -18.12 dB 2:46 25-Stardust
DR10 -1.36 dB -12.52 dB 2:33 26-Honeysuckle Rose

Number of tracks: 26
Official DR value: DR12

Samplerate: 44100 Hz
Channels: 2
Bits per sample: 16
Bitrate: 455 kbps
Codec: FLAC

Exact Audio Copy V1.0 beta 4 from 7. December 2014

EAC extraction logfile from 26. January 2015, 5:01

Oscar Aleman / Swing Guitar Masterpieces 1938-1957 (disc 2)

Used drive : HP DVD Writer 1040r Adapter: 1 ID: 0

Read mode : Secure
Utilize accurate stream : Yes
Defeat audio cache : Yes
Make use of C2 pointers : No

Read offset correction

: 6
Overread into Lead-In and Lead-Out : No
Fill up missing offset samples with silence : Yes
Delete leading and trailing silent blocks : No
Null samples used in CRC calculations : Yes
Used interface
: Native Win32 interface for Win NT & 2000
Gap handling
: Appended to previous track

Used output format : User Defined Encoder
Selected bitrate : 1024 kBit/s
Quality : High
Add ID3 tag : No
Command line compressor : K:\Program Files (x86)\Exact Audio Copy\Flac\flac.exe
Additional command line options : -8 -V -T "ARTIST=%artist%" -T "TITLE=%title%" -T "ALBUM=%albumtitle%" -T "DATE=%year%" -T "TRACKNUMBER=%tracknr%" -T "GENRE=%genre%" -T "PERFORMER=%albuminterpret%" -T "COMPOSER=%composer%" %haslyrics%--tag-from-file=LYRICS="%lyricsfile%"%haslyrics% -T "ALBUMARTIST=%albumartist%" -T "DISCNUMBER=%cdnumber%" -T "TOTALDISCS=%totalcds%" -T "TOTALTRACKS=%numtracks%" -T "COMMENT=%comment%" %source% -o %dest%

TOC of the extracted CD Track | Start | Length | Start sector | End sector
--1 | 0:00.00 | 2:25.25 | 0 | 10899 2 | 2:25.25 | 2:35.10 | 10900 | 22534 3 | 5:00.35 | 2:35.20 | 22535 | 34179 4 | 7:35.55 | 2:27.47 | 34180 | 45251 5 | 10:03.27 | 2:45.33 | 45252 | 57659 6 | 12:48.60 | 2:23.45 | 57660 | 68429 7 | 15:12.30 | 2:39.00 | 68430 | 80354 8 | 17:51.30 | 2:51.40 | 80355 | 93219 9 | 20:42.70 | 2:52.57 | 93220 | 106176
10 | 23:35.52 | 2:34.65 | 106177 | 117791
11 | 26:10.42 | 2:35.03 | 117792 | 129419
12 | 28:45.45 | 2:43.25 | 129420 | 141669
13 | 31:28.70 | 2:51.15 | 141670 | 154509
14 | 34:20.10 | 2:49.10 | 154510 | 167194
15 | 37:09.20 | 3:02.65 | 167195 | 180909
16 | 40:12.10 | 3:04.12 | 180910 | 194721
17 | 43:16.22 | 2:29.60 | 194722 | 205956
18 | 45:46.07 | 2:57.50 | 205957 | 219281
19 | 48:43.57 | 2:24.28 | 219282 | 230109
20 | 51:08.10 | 1:54.10 | 230110 | 238669
21 | 53:02.20 | 3:19.52 | 238670 | 253646
22 | 56:21.72 | 2:41.43 | 253647 | 265764
23 | 59:03.40 | 3:07.47 | 265765 | 279836
24 | 62:11.12 | 2:50.10 | 279837 | 292596
25 | 65:01.22 | 2:48.58 | 292597 | 305254
26 | 67:50.05 | 3:14.35 | 305255 | 319839

Track 1 Filename E:\EAC2\Swing Guitar Masterpieces 1938-1957 (disc 2)\01 Lady Be Good.wav Pre-gap length 0:00:02.00 Peak level 90.6 %
Extraction speed 1.7 X
Track quality 100.0 %
Test CRC 9C8EF41D
Copy CRC 9C8EF41D
Accurately ripped (confidence 2) [A39C7786] (AR v2)
Copy OK

Track 2 Filename E:\EAC2\Swing Guitar Masterpieces 1938-1957 (disc 2)\02 Doin' the New Lowdown.wav Pre-gap length 0:00:02.57 Peak level 94.0 %
Extraction speed 1.9 X
Track quality 100.0 %
Test CRC 1CBD2E6A
Copy CRC 1CBD2E6A
Accurately ripped (confidence 2) [E6E4BDA6] (AR v2)
Copy OK

Track 3 Filename E:\EAC2\Swing Guitar Masterpieces 1938-1957 (disc 2)\03 Improvisaciones Sobre Boogie Woogie.wav Pre-gap length 0:00:02.54 Peak level 83.8 %
Extraction speed 2.0 X
Track quality 100.0 %
Test CRC B2CD6642
Copy CRC B2CD6642
Accurately ripped (confidence 2) [CF29FF8B] (AR v2)
Copy OK

Track 4 Filename E:\EAC2\Swing Guitar Masterpieces 1938-1957 (disc 2)\04 Swingin' on a Star.wav Pre-gap length 0:00:02.57 Peak level 85.9 %
Extraction speed 2.1 X
Track quality 100.0 %
Test CRC 53625FED
Copy CRC 53625FED
Accurately ripped (confidence 2) [41FF9B7C] (AR v2)
Copy OK

Track 5 Filename E:\EAC2\Swing Guitar Masterpieces 1938-1957 (disc 2)\05 Melancolia.wav Pre-gap length 0:00:02.60 Peak level 86.5 %
Extraction speed 2.2 X
Track quality 100.0 %
Test CRC D5E85022
Copy CRC D5E85022
Accurately ripped (confidence 2) [3DC504A0] (AR v2)
Copy OK

Track 6 Filename E:\EAC2\Swing Guitar Masterpieces 1938-1957 (disc 2)\06 Sentimental Journey.wav Pre-gap length 0:00:02.57 Peak level 91.2 %
Extraction speed 2.3 X
Track quality 100.0 %
Test CRC C788DE21
Copy CRC C788DE21
Accurately ripped (confidence 2) [1E6E2FD8] (AR v2)
Copy OK

Track 7 Filename E:\EAC2\Swing Guitar Masterpieces 1938-1957 (disc 2)\07 Como te Llamas.wav Pre-gap length 0:00:02.57 Peak level 89.1 %
Extraction speed 1.9 X
Track quality 99.9 %
Test CRC 076EDAB5
Copy CRC 076EDAB5
Accurately ripped (confidence 2) [FC91AB69] (AR v2)
Copy OK

Track 8 Filename E:\EAC2\Swing Guitar Masterpieces 1938-1957 (disc 2)\08 Bugle Call Rag.wav Pre-gap length 0:00:02.57 Peak level 89.7 %
Extraction speed 2.5 X
Track quality 100.0 %
Test CRC 6D2A45CD
Copy CRC 6D2A45CD
Accurately ripped (confidence 2) [393C29B5] (AR v2)
Copy OK

Track 9 Filename E:\EAC2\Swing Guitar Masterpieces 1938-1957 (disc 2)\09 Darktown Strutter's Ball.wav Pre-gap length 0:00:02.57 Peak level 91.1 %
Extraction speed 2.7 X
Track quality 100.0 %
Test CRC 72C6163B
Copy CRC 72C6163B
Accurately ripped (confidence 2) [67DA630D] (AR v2)
Copy OK

Track 10 Filename E:\EAC2\Swing Guitar Masterpieces 1938-1957 (disc 2)\10 I'm Beginning to See The Light.wav Pre-gap length 0:00:02.56 Peak level 93.0 %
Extraction speed 2.7 X
Track quality 100.0 %
Test CRC 6C91CDFB
Copy CRC 6C91CDFB
Accurately ripped (confidence 2) [5D470B2D] (AR v2)
Copy OK

Track 11 Filename E:\EAC2\Swing Guitar Masterpieces 1938-1957 (disc 2)\11 Blue Skies.wav Pre-gap length 0:00:02.56 Peak level 92.0 %
Extraction speed 2.0 X
Track quality 99.9 %
Test CRC F6362248
Copy CRC F6362248
Accurately ripped (confidence 2) [31704791] (AR v2)
Copy OK

Track 12 Filename E:\EAC2\Swing Guitar Masterpieces 1938-1957 (disc 2)\12 Twelfth Street Rag.wav Pre-gap length 0:00:02.57 Peak level 90.8 %
Extraction speed 2.1 X
Track quality 99.9 %
Test CRC D566DF6D
Copy CRC D566DF6D
Accurately ripped (confidence 2) [54E9A532] (AR v2)
Copy OK

Track 13 Filename E:\EAC2\Swing Guitar Masterpieces 1938-1957 (disc 2)\13 Diga Diga Do.wav Pre-gap length 0:00:02.57 Peak level 93.6 %
Extraction speed 3.0 X
Track quality 100.0 %
Test CRC 90F2E39D
Copy CRC 90F2E39D
Accurately ripped (confidence 2) [526FFC34] (AR v2)
Copy OK

Track 14 Filename E:\EAC2\Swing Guitar Masterpieces 1938-1957 (disc 2)\14 Swanee River.wav Pre-gap length 0:00:02.57 Peak level 76.5 %
Extraction speed 3.1 X
Track quality 100.0 %
Test CRC 5F03FCD9
Copy CRC 5F03FCD9
Accurately ripped (confidence 2) [2FBEE8BB] (AR v2)
Copy OK

Track 15 Filename E:\EAC2\Swing Guitar Masterpieces 1938-1957 (disc 2)\15 Vieni sul Mar.wav Pre-gap length 0:00:02.57 Peak level 81.9 %
Extraction speed 3.2 X
Track quality 100.0 %
Test CRC 55BDB7C3
Copy CRC 55BDB7C3
Accurately ripped (confidence 2) [312BFD5A] (AR v2)
Copy OK

Track 16 Filename E:\EAC2\Swing Guitar Masterpieces 1938-1957 (disc 2)\16 Delicado.wav Pre-gap length 0:00:02.60 Peak level 94.1 %
Extraction speed 3.3 X
Track quality 100.0 %
Test CRC C6970883
Copy CRC C6970883
Accurately ripped (confidence 2) [0942F30F] (AR v2)
Copy OK

Track 17 Filename E:\EAC2\Swing Guitar Masterpieces 1938-1957 (disc 2)\17 Scartunas.wav Pre-gap length 0:00:02.56 Peak level 91.7 %
Extraction speed 3.3 X
Track quality 100.0 %
Test CRC 36E2E76C
Copy CRC 36E2E76C
Accurately ripped (confidence 11) [E09AF721] (AR v1)
Copy OK

Track 18 Filename E:\EAC2\Swing Guitar Masterpieces 1938-1957 (disc 2)\18 Mia Casita Pequeñita.wav Pre-gap length 0:00:02.56 Peak level 85.3 %
Extraction speed 3.4 X
Track quality 100.0 %
Test CRC 968FD112
Copy CRC 968FD112
Accurately ripped (confidence 8) [69D2D6AA] (AR v1)
Copy OK

Track 19 Filename E:\EAC2\Swing Guitar Masterpieces 1938-1957 (disc 2)\19 Crazy Rhythm.wav Pre-gap length 0:00:02.56 Peak level 89.4 %
Extraction speed 3.4 X
Track quality 100.0 %
Test CRC F1C515FD
Copy CRC F1C515FD
Accurately ripped (confidence 2) [1AB0CF94] (AR v2)
Copy OK

Track 20 Filename E:\EAC2\Swing Guitar Masterpieces 1938-1957 (disc 2)\20 Daphne.wav Pre-gap length 0:00:02.57 Peak level 73.3 %
Extraction speed 3.2 X
Track quality 100.0 %
Test CRC E827DF12
Copy CRC E827DF12
Accurately ripped (confidence 11) [E9DC2A28] (AR v1)
Copy OK

Track 21 Filename E:\EAC2\Swing Guitar Masterpieces 1938-1957 (disc 2)\21 Dolores.wav Pre-gap length 0:00:02.57 Peak level 83.6 %
Extraction speed 3.6 X
Track quality 100.0 %
Test CRC 8D5AAED6
Copy CRC 8D5AAED6
Accurately ripped (confidence 10) [7D93BA96] (AR v1)
Copy OK

Track 22 Filename E:\EAC2\Swing Guitar Masterpieces 1938-1957 (disc 2)\22 April in Portugal.wav Pre-gap length 0:00:02.56 Peak level 86.8 %
Extraction speed 3.6 X
Track quality 100.0 %
Test CRC 5DB898CB
Copy CRC 5DB898CB
Accurately ripped (confidence 2) [29D6D712] (AR v2)
Copy OK

Track 23 Filename E:\EAC2\Swing Guitar Masterpieces 1938-1957 (disc 2)\23 You Belong to Me.wav Pre-gap length 0:00:02.57 Peak level 81.8 %
Extraction speed 3.8 X
Track quality 100.0 %
Test CRC 4ED6B15D
Copy CRC 4ED6B15D
Accurately ripped (confidence 2) [8638294A] (AR v2)
Copy OK

Track 24 Filename E:\EAC2\Swing Guitar Masterpieces 1938-1957 (disc 2)\24 Who's Sorry Now.wav Pre-gap length 0:00:02.56 Peak level 88.6 %
Extraction speed 3.8 X
Track quality 100.0 %
Test CRC 577FE5D2
Copy CRC 577FE5D2
Accurately ripped (confidence 11) [EEF15504] (AR v1)
Copy OK

Track 25 Filename E:\EAC2\Swing Guitar Masterpieces 1938-1957 (disc 2)\25 Tiger Rag.wav Pre-gap length 0:00:02.56 Peak level 87.6 %
Extraction speed 3.9 X
Track quality 100.0 %
Test CRC A7AFF72A
Copy CRC A7AFF72A
Accurately ripped (confidence 10) [9163C199] (AR v1)
Copy OK

Track 26 Filename E:\EAC2\Swing Guitar Masterpieces 1938-1957 (disc 2)\26 Tea for Two.wav Pre-gap length 0:00:02.57 Peak level 90.1 %
Extraction speed 0.6 X
Track quality 99.7 %
Test CRC 700A13EA
Copy CRC 700A13EA
Accurately ripped (confidence 2) [28EDF8A9] (AR v2)
Copy OK

All tracks accurately ripped

No errors occurred

End of status report

- CUETools DB Plugin V2.1.4

[CTDB TOCID: _bGyaAtds84xpOhoxha0JR0Wxvo-] found
Submit result: _bGyaAtds84xpOhoxha0JR0Wxvo- has been uploaded
Track | CTDB Status
1 | (1/1) Accurately ripped
2 | (1/1) Accurately ripped
3 | (1/1) Accurately ripped
4 | (0/1) No match
5 | (1/1) Accurately ripped
6 | (1/1) Accurately ripped
7 | (1/1) Accurately ripped
8 | (1/1) Accurately ripped
9 | (1/1) Accurately ripped
10 | (1/1) Accurately ripped
11 | (1/1) Accurately ripped
12 | (1/1) Accurately ripped
13 | (1/1) Accurately ripped
14 | (1/1) Accurately ripped
15 | (1/1) Accurately ripped
16 | (1/1) Accurately ripped
17 | (1/1) Accurately ripped
18 | (1/1) Accurately ripped
19 | (1/1) Accurately ripped
20 | (1/1) Accurately ripped
21 | (0/1) No match
22 | (1/1) Accurately ripped
23 | (1/1) Accurately ripped
24 | (1/1) Accurately ripped
25 | (1/1) Accurately ripped
26 | (1/1) Accurately ripped

==== Log checksum 31123F065B70EEC32A50DF651EA2A3F4AAC80B345E3EC82EFA57DC09366DCE4B ====

foobar2000 1.2 / Dynamic Range Meter 1.1.1
log date: 2015-10-07 15:57:44

Analyzed: Oscar Aleman / Swing Guitar Masterpieces 1938-1957 CD2

DR Peak RMS Duration Track

DR10 -0.85 dB -13.00 dB 2:25 01-Lady Be Good
DR10 -0.54 dB -11.88 dB 2:35 02-Doin' the New Lowdown
DR12 -1.53 dB -14.87 dB 2:35 03-Improvisaciones Sobre Boogie Woogie
DR10 -1.31 dB -12.73 dB 2:28 04-Swingin' on a Star
DR12 -1.25 dB -15.90 dB 2:45 05-Melancolia
DR12 -0.80 dB -13.93 dB 2:24 06-Sentimental Journey
DR11 -1.00 dB -14.31 dB 2:39 07-Como Te Llamas
DR11 -0.94 dB -14.15 dB 2:52 08-Bugle Call Rag
DR12 -0.80 dB -13.53 dB 2:53 09-Darktown Strutter's Ball
DR12 -0.62 dB -14.67 dB 2:35 10-I'm Beginning to See the Light
DR13 -0.72 dB -17.08 dB 2:35 11-Blue Skies
DR10 -0.83 dB -12.83 dB 2:43 12-Twelfth Street Rag
DR10 -0.57 dB -13.00 dB 2:51 13-Diga Diga Do
DR9 -2.32 dB -13.57 dB 2:49 14-Swanee River
DR12 -1.73 dB -14.60 dB 3:03 15-Vieni Sul Mar
DR12 -0.52 dB -15.44 dB 3:04 16-Delicado
DR11 -0.74 dB -14.29 dB 2:30 17-Scartunas
DR12 -1.37 dB -16.50 dB 2:58 18-Mia Casita Pequenita
DR10 -0.97 dB -12.98 dB 2:24 19-Crazy Rhythm
DR11 -2.70 dB -15.32 dB 1:54 20-Daphne
DR12 -1.55 dB -14.30 dB 3:20 21-Dolores
DR11 -1.23 dB -13.46 dB 2:42 22-April in Portugal
DR10 -1.74 dB -13.45 dB 3:08 23-You Belong to Me
DR10 -1.05 dB -12.54 dB 2:50 24-Who's Sorry Now?
DR12 -1.15 dB -14.05 dB 2:49 25-Tiger Rag
DR11 -0.90 dB -13.82 dB 3:14 26-Tea for Two

Number of tracks: 26
Official DR value: DR11

Samplerate: 44100 Hz
Channels: 2
Bits per sample: 16
Bitrate: 525 kbps
Codec: FLAC

Oscar Aleman - Swing Guitar Masterpieces 1938-1957 (1998) 2CD

Oscar Aleman - Swing Guitar Masterpieces 1938-1957 (1998) 2CD

All thanks to original releaser - mandof5 and fiks22 for share
Password: designol

DOWNLOAD LINKS
Buy Premium From My Links To Get Resumable Support & Max Speed & To Support Me


Links are Interchangeable - No Password - Single Extraction
Direct Download

Tags: Aleman, Guitar, Masterpieces

Oscar Aleman - Swing Guitar Masterpieces 1938-1957 (1998) 2CD Download via Hotfile Rapidshare Fileserve Megaupload & FileSonic, Oscar Aleman - Swing Guitar Masterpieces 1938-1957 (1998) 2CD free torrent downloads included crack, serial, keygen.Oscar Aleman - Swing Guitar Masterpieces 1938-1957 (1998) 2CD Fast Download via Rapidshare Hotfile Fileserve Filesonic Megaupload, Oscar Aleman - Swing Guitar Masterpieces 1938-1957 (1998) 2CD Torrents and Emule Download or anything related.
Leave a Comment
Your Name:
E-Mail:
Add Comments:

Enter Code: