The Angels - Greatest Hits Live! (2011)

Download Now

The Angels - Greatest Hits Live! (2011)

The Angels - Greatest Hits Live! (2011)
EAC | Flac(Image) + Cue + Log & MP3 CBR 320Kbps
Liberation Music, LMCD0136 | ~ 555 or 169 Mb | Scans Included
Classic Rock / Hard Rock

"Delivering raucous hard rock in the tradition of contemporaries like AC/DC and Rose Tattoo, the Angels are among the longest-lasting and most beloved bands ever to emerge from the Australian pub circuit. Their roots date back to 1973, when singer Doc Neeson and guitarist Rick Brewster first teamed up at university in an eccentric acoustic covers group dubbed the Moonshine Jug and String Band; by the following year they had begun adopting a more straightforward and electric approach, rechristening themselves the Keystone Angels in the process..."

The Angels - Greatest Hits Live! (2011)

The Angels at Wiki | The Angels at Discogs | The Angels at Allmusic | The Angels HomePage

***********
The Angels - Greatest Hits Live! (2011):


Tracklist:

01. Comin' Down (4:27)
02. No Secrets (4:41)
03. Shadow Boxer (2:37)
04. After the Rain (5:00)
05. Fashion & Fame (4:48)
06. Be With You (4:06)
07. Save Me (4:25)
08. Am I Ever Gonna See Your Face Again (4:09)
09. Stand Up (3:15)
10. Don't Waste My Time (4:11)
11. Face the Day (5:20)
12. Take a Long Line (5:29)
13. Mr. Damage (4:24)
14. Marseilles (10:10)
15. I Ain't the One (2:56)

Exact Audio Copy V1.0 beta 3 from 29. August 2011

EAC extraction logfile from 3. March 2014, 19:51

The Angels / Greatest Hits Live!

Used drive : ATAPI iHAS324 B Adapter: 3 ID: 0

Read mode : Secure
Utilize accurate stream : Yes
Defeat audio cache : Yes
Make use of C2 pointers : No

Read offset correction

: 6
Overread into Lead-In and Lead-Out : No
Fill up missing offset samples with silence : Yes
Delete leading and trailing silent blocks : No
Null samples used in CRC calculations : Yes
Used interface
: Installed external ASPI interface
Gap handling
: Appended to previous track

Used output format : User Defined Encoder
Selected bitrate : 1024 kBit/s
Quality : High
Add ID3 tag : No
Command line compressor : C:\Program Files\Exact Audio Copy\Flac\flac.exe
Additional command line options : -8 -V -T "ARTIST=%artist%" -T "TITLE=%title%" -T "ALBUM=%albumtitle%" -T "DATE=%year%" -T "TRACKNUMBER=%tracknr%" -T "GENRE=%genre%" -T "PERFORMER=%albuminterpret%" -T "COMPOSER=%composer%" %haslyrics%--tag-from-file=LYRICS="%lyricsfile%"%haslyrics% -T "ALBUMARTIST=%albumartist%" -T "DISCNUMBER=%cdnumber%" -T "TOTALDISCS=%totalcds%" -T "TOTALTRACKS=%numtracks%" -T "COMMENT=EAC V1.0 beta 3, Secure Mode, Test & Copy, AccurateRip, FLAC -8" %source% -o %dest%

TOC of the extracted CD Track | Start | Length | Start sector | End sector
--1 | 0:00.00 | 4:27.60 | 0 | 20084 2 | 4:27.60 | 4:41.39 | 20085 | 41198 3 | 9:09.24 | 2:37.74 | 41199 | 53047 4 | 11:47.23 | 5:00.24 | 53048 | 75571 5 | 16:47.47 | 4:48.37 | 75572 | 97208 6 | 21:36.09 | 4:06.33 | 97209 | 115691 7 | 25:42.42 | 4:25.55 | 115692 | 135621 8 | 30:08.22 | 4:09.55 | 135622 | 154351 9 | 34:18.02 | 3:15.20 | 154352 | 168996
10 | 37:33.22 | 4:11.52 | 168997 | 187873
11 | 41:44.74 | 5:20.24 | 187874 | 211897
12 | 47:05.23 | 5:29.48 | 211898 | 236620
13 | 52:34.71 | 4:24.20 | 236621 | 256440
14 | 56:59.16 | 10:10.29 | 256441 | 302219
15 | 67:09.45 | 2:56.23 | 302220 | 315442

Track 1 Filename D:\Australian\The Angels - Greatest Hits Live!\01 - Comin' Down.wav Pre-gap length 0:00:02.00 Peak level 99.9 %
Extraction speed 3.9 X
Track quality 100.0 %
Test CRC 8F9C5CE8
Copy CRC 8F9C5CE8
Accurately ripped (confidence 2) [6632D7E2] (AR v2)
Copy OK

Track 2 Filename D:\Australian\The Angels - Greatest Hits Live!\02 - No Secrets.wav Peak level 99.9 %
Extraction speed 3.6 X
Track quality 99.9 %
Test CRC 25C613EA
Copy CRC 25C613EA
Accurately ripped (confidence 2) [1B32CF0F] (AR v2)
Copy OK

Track 3 Filename D:\Australian\The Angels - Greatest Hits Live!\03 - Shadow Boxer.wav Peak level 99.9 %
Extraction speed 4.3 X
Track quality 100.0 %
Test CRC 966D5C70
Copy CRC 966D5C70
Accurately ripped (confidence 2) [3216C020] (AR v2)
Copy OK

Track 4 Filename D:\Australian\The Angels - Greatest Hits Live!\04 - After The Rain.wav Peak level 100.0 %
Extraction speed 5.0 X
Track quality 100.0 %
Test CRC 97AC31A2
Copy CRC 97AC31A2
Accurately ripped (confidence 2) [7D4B0C96] (AR v2)
Copy OK

Track 5 Filename D:\Australian\The Angels - Greatest Hits Live!\05 - Fashion & Fame.wav Peak level 99.9 %
Extraction speed 4.4 X
Track quality 99.9 %
Test CRC 68BC6565
Copy CRC 68BC6565
Accurately ripped (confidence 2) [73864252] (AR v2)
Copy OK

Track 6 Filename D:\Australian\The Angels - Greatest Hits Live!\06 - Be With You.wav Peak level 100.0 %
Extraction speed 5.6 X
Track quality 100.0 %
Test CRC ECF5C3BF
Copy CRC ECF5C3BF
Accurately ripped (confidence 2) [CE33466E] (AR v2)
Copy OK

Track 7 Filename D:\Australian\The Angels - Greatest Hits Live!\07 - Save Me.wav Peak level 99.9 %
Extraction speed 5.9 X
Track quality 100.0 %
Test CRC 27466ED8
Copy CRC 27466ED8
Accurately ripped (confidence 2) [3312D213] (AR v2)
Copy OK

Track 8 Filename D:\Australian\The Angels - Greatest Hits Live!\08 - Am I Ever Gonna See Your Face Again.wav Peak level 100.0 %
Extraction speed 6.1 X
Track quality 100.0 %
Test CRC 19E4A39C
Copy CRC 19E4A39C
Accurately ripped (confidence 2) [DEFD178F] (AR v2)
Copy OK

Track 9 Filename D:\Australian\The Angels - Greatest Hits Live!\09 - Stand Up.wav Peak level 99.9 %
Extraction speed 6.1 X
Track quality 100.0 %
Test CRC 2EDFAAE1
Copy CRC 2EDFAAE1
Accurately ripped (confidence 2) [D1294781] (AR v2)
Copy OK

Track 10 Filename D:\Australian\The Angels - Greatest Hits Live!\10 - Don't Waste My Time.wav Peak level 99.9 %
Extraction speed 6.5 X
Track quality 100.0 %
Test CRC 854EC325
Copy CRC 854EC325
Accurately ripped (confidence 2) [5C1F0C7A] (AR v2)
Copy OK

Track 11 Filename D:\Australian\The Angels - Greatest Hits Live!\11 - Face The Day.wav Peak level 99.9 %
Extraction speed 6.9 X
Track quality 100.0 %
Test CRC 36E7C036
Copy CRC 36E7C036
Accurately ripped (confidence 2) [2A64D861] (AR v2)
Copy OK

Track 12 Filename D:\Australian\The Angels - Greatest Hits Live!\12 - Take A Long Line.wav Peak level 100.0 %
Extraction speed 5.9 X
Track quality 99.9 %
Test CRC 3D17A85F
Copy CRC 3D17A85F
Accurately ripped (confidence 2) F11482B (AR v2)
Copy OK

Track 13 Filename D:\Australian\The Angels - Greatest Hits Live!\13 - Mr. Damage.wav Peak level 99.9 %
Extraction speed 5.8 X
Track quality 99.9 %
Test CRC B71E7893
Copy CRC B71E7893
Accurately ripped (confidence 2) 7C3FA2F (AR v2)
Copy OK

Track 14 Filename D:\Australian\The Angels - Greatest Hits Live!\14 - Marseilles.wav Peak level 99.9 %
Extraction speed 8.2 X
Track quality 100.0 %
Test CRC 31AE5733
Copy CRC 31AE5733
Accurately ripped (confidence 2) [2EC2020C] (AR v2)
Copy OK

Track 15 Filename D:\Australian\The Angels - Greatest Hits Live!\15 - I Ain't The One.wav Peak level 100.0 %
Extraction speed 5.5 X
Track quality 99.9 %
Test CRC A0E95451
Copy CRC A0E95451
Accurately ripped (confidence 2) [396746B6] (AR v2)
Copy OK

All tracks accurately ripped

No errors occurred

End of status report

- CUETools DB Plugin V2.1.3

[CTDB TOCID: T48gb1WAJJ4RsqC.gbgQ3979nPo-] found, Submit result: T48gb1WAJJ4RsqC.gbgQ3979nPo- has been confirmed
[0b15e58a] (3/3) Accurately ripped

==== Log checksum 8F438DC2A7529A97A04523348377C9E5028C887D082F379ECCFE8BCFBFCD48AE ====

foobar2000 1.2.9 / Dynamic Range Meter 1.1.1
log date: 2015-10-07 19:37:55

Analyzed: The Angels / Greatest Hits Live!

DR Peak RMS Duration Track

DR7 0.00 dB -8.62 dB 4:28 01-Comin' Down
DR7 0.00 dB -8.36 dB 4:42 02-No Secrets
DR7 0.00 dB -8.16 dB 2:38 03-Shadow Boxer
DR7 0.00 dB -8.29 dB 5:00 04-After The Rain
DR8 0.00 dB -8.88 dB 4:48 05-Fashion & Fame
DR8 0.00 dB -9.69 dB 4:06 06-Be With You
DR8 0.00 dB -8.87 dB 4:26 07-Save Me
DR8 0.00 dB -9.08 dB 4:10 08-Am I Ever Gonna See Your Face Again
DR7 0.00 dB -8.38 dB 3:15 09-Stand Up
DR9 0.00 dB -10.27 dB 4:12 10-Don't Waste My Time
DR9 0.00 dB -10.59 dB 5:20 11-Face The Day
DR7 0.00 dB -8.55 dB 5:30 12-Take A Long Line
DR7 0.00 dB -8.04 dB 4:24 13-Mr. Damage
DR7 0.00 dB -9.40 dB 10:10 14-Marseilles
DR7 0.00 dB -8.18 dB 2:56 15-I Ain't The One

Number of tracks: 15
Official DR value: DR8

Samplerate: 44100 Hz
Channels: 2
Bits per sample: 16
Bitrate: 1067 kbps
Codec: FLAC

[CUETools log; Date: 07.10.2015 19:37:42; Version: 2.1.4]
[CTDB TOCID: T48gb1WAJJ4RsqC.gbgQ3979nPo-] found.
Track | CTDB Status
1 | (4/4) Accurately ripped
2 | (4/4) Accurately ripped
3 | (4/4) Accurately ripped
4 | (4/4) Accurately ripped
5 | (4/4) Accurately ripped
6 | (4/4) Accurately ripped
7 | (4/4) Accurately ripped
8 | (4/4) Accurately ripped
9 | (4/4) Accurately ripped
10 | (4/4) Accurately ripped
11 | (4/4) Accurately ripped
12 | (4/4) Accurately ripped
13 | (4/4) Accurately ripped
14 | (4/4) Accurately ripped
15 | (4/4) Accurately ripped
[AccurateRip ID: 002432b1-019e8951-bb106d0f] found.
Track [ CRC | V2 ] Status
01 [c2717c58|6632d7e2] (0+6/6) Accurately ripped
02 [2dbe7867|1b32cf0f] (0+6/6) Accurately ripped
03 [9b54a051|3216c020] (0+6/6) Accurately ripped
04 [9d1eae76|7d4b0c96] (0+6/6) Accurately ripped
05 [4c960bd1|73864252] (0+6/6) Accurately ripped
06 8005e18|ce33466e (0+6/6) Accurately ripped
07 [a876274f|3312d213] (0+6/6) Accurately ripped
08 [1df6972d|defd178f] (0+6/6) Accurately ripped
09 [59b39c87|d1294781] (0+6/6) Accurately ripped
10 [53190666|5c1f0c7a] (0+6/6) Accurately ripped
11 [5ea4eaf2|2a64d861] (0+6/6) Accurately ripped
12 [80555b9a|bf11482b] (0+6/6) Accurately ripped
13 76d0102|b7c3fa2f (0+6/6) Accurately ripped
14 [a981fb68|2ec2020c] (0+6/6) Accurately ripped
15 [616dda15|396746b6] (0+6/6) Accurately ripped

Track Peak [ CRC32 ] [W/O NULL] [ LOG ]
-- 100,0 [91B46017] [FF63E13A]
01 99,9 [8F9C5CE8] [9C9DCF1C] CRC32
02 99,9 [25C613EA] [1FA5201B] CRC32
03 99,9 [966D5C70] [F8249FD0] CRC32
04 100,0 [97AC31A2] [18959359] CRC32
05 99,9 [68BC6565] [55B4C5D2] CRC32
06 100,0 [ECF5C3BF] [DE778006] CRC32
07 99,9 [27466ED8] [DA7A3728] CRC32
08 100,0 [19E4A39C] [9F5C5213] CRC32
09 99,9 [2EDFAAE1] [7BE8781D] CRC32
10 99,9 [854EC325] [1DA037CD] CRC32
11 99,9 [36E7C036] [1D3FE476] CRC32
12 100,0 [3D17A85F] [7F2F04E8] CRC32
13 99,9 71E7893 [22D6E513] CRC32
14 99,9 [31AE5733] [CEA9A43A] CRC32
15 100,0 [A0E95451] [6BD13886] CRC32

The Angels - Greatest Hits Live! (2011)

All thanks go to the original releaser



Download The Angels - Greatest Hits Live! (2011):

DOWNLOAD LINKS
Buy Premium From My Links To Get Resumable Support & Max Speed & To Support Me


Links are Interchangeable - No Password - Single Extraction
Direct Download

Tags: Angels, Greatest

The Angels - Greatest Hits Live! (2011) Download via Hotfile Rapidshare Fileserve Megaupload & FileSonic, The Angels - Greatest Hits Live! (2011) free torrent downloads included crack, serial, keygen.The Angels - Greatest Hits Live! (2011) Fast Download via Rapidshare Hotfile Fileserve Filesonic Megaupload, The Angels - Greatest Hits Live! (2011) Torrents and Emule Download or anything related.
Leave a Comment
Your Name:
E-Mail:
Add Comments:

Enter Code: