Pangea - Pangea (1996) [EastWest AMCE-2023, Japan]

Download Now

Pangea - Pangea (1996) [EastWest AMCE-2023, Japan]

Pangea - Pangea (1996)
EAC | Flac(Image) + Cue + Log & MP3 CBR 320Kbps
EastWest, AMCE-2023 | ~ 408 or 159 Mb | Scans(png) -> 228 Mb
New Age / World Music

"Pangea is the second project from Dan Lacksman, the man behind the new age studio dance troupe, Deep Forest. Like Deep Forest, Pangea attempts to fuse danceable polyrhythms with worldbeat textures and synthesizers..."


Tracklist:

01. Introduction To Pangea (0:27)
02. Memories Of Pangea (4:10)
03. M'ganga's Devotion (4:24)
04. Tanganyika Secret (5:06)
05. Mangbetu Girl (3:42)
06. Sanza's Spirit (4:19)
07. Back To Kirisoke (4:17)
08. Happy Threshing (3:34)
09. River Dawn (3:48)
10. Kiranga Beat (3:07)
11. Water And Fire (4:51)
12. Outro (0:45)
13. Memories Of Pangea (Dee Never Ending Litehaus Mix) (Bonus Track for Japan Only) (17:11)
14. Memories Of Pangea (Dub Mental Mix) (Bonus Track for Japan Only) (7:59)

Exact Audio Copy V1.0 beta 1 from 15. November 2010

EAC extraction logfile from 17. October 2011, 16:38

Pangea / Pangea (Japanese Press)

Used drive : SONY DVD RW AD-7260S Adapter: 3 ID: 0

Read mode : Secure
Utilize accurate stream : Yes
Defeat audio cache : Yes
Make use of C2 pointers : No

Read offset correction

: 48
Overread into Lead-In and Lead-Out : No
Fill up missing offset samples with silence : Yes
Delete leading and trailing silent blocks : No
Null samples used in CRC calculations : Yes
Used interface
: Native Win32 interface for Win NT & 2000

Used output format : Internal WAV Routines
Sample format : 44.100 Hz; 16 Bit; Stereo

TOC of the extracted CD Track | Start | Length | Start sector | End sector
--1 | 0:00.00 | 0:27.00 | 0 | 2024 2 | 0:27.00 | 4:10.07 | 2025 | 20781 3 | 4:37.07 | 4:23.55 | 20782 | 40561 4 | 9:00.62 | 5:04.70 | 40562 | 63431 5 | 14:05.57 | 3:41.55 | 63432 | 80061 6 | 17:47.37 | 4:18.73 | 80062 | 99484 7 | 22:06.35 | 4:17.07 | 99485 | 118766 8 | 26:23.42 | 3:33.20 | 118767 | 134761 9 | 29:56.62 | 3:48.53 | 134762 | 151914
10 | 33:45.40 | 3:06.40 | 151915 | 165904
11 | 36:52.05 | 4:51.35 | 165905 | 187764
12 | 41:43.40 | 0:43.60 | 187765 | 191049
13 | 42:27.25 | 17:11.52 | 191050 | 268426
14 | 59:39.02 | 7:59.68 | 268427 | 304419

Range status and errors

Selected range Filename U:\Deep Forest\Pangea 1996 - Pangea (Japanese Press)\Pangea - Pangea (Japanese Press).wav Peak level 100.0 %
Extraction speed 0.5 X
Range quality 100.0 %
Test CRC 8164C996
Copy CRC 8164C996
Copy OK

No errors occurred


AccurateRip summary

Track 1 not present in database
Track 2 not present in database
Track 3 not present in database
Track 4 not present in database
Track 5 not present in database
Track 6 not present in database
Track 7 not present in database
Track 8 not present in database
Track 9 not present in database
Track 10 not present in database
Track 11 not present in database
Track 12 not present in database
Track 13 not present in database
Track 14 not present in database

None of the tracks are present in the AccurateRip database

End of status report

foobar2000 1.2.9 / Dynamic Range Meter 1.1.1
log date: 2015-10-08 00:25:01

Analyzed: Pangea / Pangea (Japanese Press)

DR Peak RMS Duration Track

DR9 -3.51 dB -17.21 dB 0:27 01-Introduction To Pangea
DR12 -0.06 dB -13.82 dB 4:10 02-Memories Of Pangea
DR13 -0.07 dB -15.08 dB 4:24 03-M'ganga's Devotion
DR12 -0.39 dB -13.84 dB 5:05 04-Tanganyika Secret
DR13 0.00 dB -16.06 dB 3:42 05-Mangbetu Girl
DR13 -0.34 dB -17.27 dB 4:19 06-Sanza's Spirit
DR13 -0.08 dB -15.74 dB 4:17 07-Back To Kirisoke
DR14 -0.08 dB -15.25 dB 3:33 08-Happy Threshing
DR13 -0.10 dB -15.80 dB 3:49 09-River Dawn
DR13 -0.46 dB -14.12 dB 3:07 10-Kiranga Beat
DR12 -0.02 dB -16.35 dB 4:51 11-Water And Fire
DR9 -2.41 dB -18.67 dB 0:44 12-Outro
DR8 -2.88 dB -12.75 dB 17:12 13-Memories Of Pangea (Dee Never Ending Litehaus Mix)
DR14 0.00 dB -15.32 dB 8:00 14-Memories Of Pangea (Dub Mental Mix)

Number of tracks: 14
Official DR value: DR12

Samplerate: 44100 Hz
Channels: 2
Bits per sample: 16
Bitrate: 819 kbps
Codec: FLAC

[CUETools log; Date: 08.10.2015 0:26:24; Version: 2.1.4]
[CTDB TOCID: eX8Hs3YLRkJBE.ijL57CC7k346Q-] disk not present in database.
[AccurateRip ID: 001be9ef-01359cdb-cc0fda0e] disk not present in database.

Track Peak [ CRC32 ] [W/O NULL] [ LOG ]
-- 100,0 [8164C996] [03AD4592] CRC32
01 66,7 [DBA44876] [6C81A418]
02 99,2 [38B33FFE] [449E450F]
03 99,1 5E90615 3ECC752
04 95,6 [317796EC] [314B96CA]
05 100,0 [46B66BAC] [CCCEF6DC]
06 96,1 F93DA2D [7D59D9DD]
07 99,0 [AB7C25FB] [59266DC3]
08 99,0 [FC2067B3] [149DEAA5]
09 98,9 [61D4FE0D] [8BB8A195]
10 94,7 [393AB67A] D9E1191
11 99,7 [5E4D7959] [1CE1DD7E]
12 75,7 [6AE43B9A] [D7B9B439]
13 71,7 [635E73F4] [3DC5DA84]
14 100,0 [F97E6A11] D6D38D3

Pangea - Pangea (1996) [EastWest AMCE-2023, Japan]

All thanks go to aylaayla



Download Pangea - Pangea (1996):

DOWNLOAD LINKS
Buy Premium From My Links To Get Resumable Support & Max Speed & To Support Me


Links are Interchangeable - No Password - Single Extraction
Direct Download

Tags: Pangea, Pangea, EastWest

Pangea - Pangea (1996) [EastWest AMCE-2023, Japan] Download via Hotfile Rapidshare Fileserve Megaupload & FileSonic, Pangea - Pangea (1996) [EastWest AMCE-2023, Japan] free torrent downloads included crack, serial, keygen.Pangea - Pangea (1996) [EastWest AMCE-2023, Japan] Fast Download via Rapidshare Hotfile Fileserve Filesonic Megaupload, Pangea - Pangea (1996) [EastWest AMCE-2023, Japan] Torrents and Emule Download or anything related.
Leave a Comment
Your Name:
E-Mail:
Add Comments:

Enter Code: