Slash - Apocalyptic Love (2012)

Download Now

Slash - Apocalyptic Love (2012)

Slash - Apocalyptic Love (2012)
EAC | FLAC | Image (Cue&Log) ~ 409 Mb (incl 5%) | Mp3 (CBR320) ~ 139 Mb (incl 5%) | Scans included
Genre: Hard Rock | Label: Roadrunner | # RR 7678-2 | Time: 00:54:27

"If you were wondering why Slash, one of the greatest guitarists of his generation, chose to throw in his lot with Myles Kennedy, one of the greatly undistinguished hard rock vocalists of his generation, consider this: if you spent your life battling temperaments like Axl Rose and Scott Weiland, you'd choose somebody who's easy to get along with too. Touring and playing with Kennedy clearly is easier on Slash's soul, and the music on Apocalyptic Love, his second solo album and first to feature Myles on vocals throughout, reflects this ease. It may be hard and heavy but it sounds relaxed, Slash and company doing the music they do best: namely, L.A. sleaze rock basics, thickly layered with guitars. There are absolutely no surprises here -- it opens with a cascade of wah-wahs and quickly settles into grinding boogie derived from Aerosmith -- but unlike either Slash's Snakepit or the 2010 Slash, Apocalyptic Love never tries too hard, so it winds up satisfying on its own limited scale."



Slash - lead guitar, acoustic guitar on "Anastasia", talkbox on "Carolina"
Myles Kennedy - lead vocals, rhythm guitar, co-lead guitar on "Far and Away"
Todd Kerns - bass, backing vocals, screams on "One Last Thrill" and "You're a Lie"
Brent Fitz - drums, percussion, piano on "Far and Away"

Tracklist:

01. Apocalyptic Love (03:28)
02. One Last Thrill (03:09)
03. Standing in the Sun (04:03)
04. You're a Lie (03:50)
05. No More Heroes (04:23)
06. Halo (03:22)
07. We Will Roam (04:49)
08. Anastasia (06:07)
09. Not for Me (05:21)
10. Bad Rain (03:46)
11. Hard & Fast (03:02)
12. Far and Away (05:14)
13. Shots Fired (03:46)


Exact Audio Copy V1.0 beta 3 from 29. August 2011

EAC extraction logfile from 7. July 2012, 9:00

Slash / Apocalyptic Love [Roadrunner RR 7678-2]

Used drive : HL-DT-STDVDRAM GH22NS90 Adapter: 4 ID: 0

Read mode : Secure
Utilize accurate stream : Yes
Defeat audio cache : Yes
Make use of C2 pointers : No

Read offset correction

: 6
Overread into Lead-In and Lead-Out : No
Fill up missing offset samples with silence : Yes
Delete leading and trailing silent blocks : No
Null samples used in CRC calculations : Yes
Used interface
: Installed external ASPI interface

Used output format : User Defined Encoder
Selected bitrate : 1024 kBit/s
Quality : High
Add ID3 tag : No
Command line compressor : D:\Program Files (x86)\Exact Audio Copy\wavpack.exe
Additional command line options : -hlmx2 %source% %dest%

TOC of the extracted CD Track | Start | Length | Start sector | End sector
--1 | 0:00.00 | 3:28.38 | 0 | 15637 2 | 3:28.38 | 3:09.41 | 15638 | 29853 3 | 6:38.04 | 4:03.43 | 29854 | 48121 4 | 10:41.47 | 3:50.49 | 48122 | 65420 5 | 14:32.21 | 4:23.51 | 65421 | 85196 6 | 18:55.72 | 3:22.62 | 85197 | 100408 7 | 22:18.59 | 4:49.38 | 100409 | 122121 8 | 27:08.22 | 6:07.21 | 122122 | 149667 9 | 33:15.43 | 5:21.49 | 149668 | 173791
10 | 38:37.17 | 3:46.53 | 173792 | 190794
11 | 42:23.70 | 3:02.29 | 190795 | 204473
12 | 45:26.24 | 5:14.52 | 204474 | 228075
13 | 50:41.01 | 3:46.36 | 228076 | 245061

Range status and errors

Selected range Filename D:\eac\Slash\Slash - Apocalyptic Love [Roadrunner RR 7678-2].wav Peak level 100.0 %
Extraction speed 1.7 X
Range quality 100.0 %
Test CRC 2C40C9DD
Copy CRC 2C40C9DD
Copy OK

No errors occurred


AccurateRip summary

Track 1 accurately ripped (confidence 7) [5F5EA663] (AR v1)
Track 2 accurately ripped (confidence 7) [5F774090] (AR v1)
Track 3 accurately ripped (confidence 7) [79658919] (AR v1)
Track 4 accurately ripped (confidence 7) [24299F25] (AR v1)
Track 5 accurately ripped (confidence 7) [DA861AB0] (AR v1)
Track 6 accurately ripped (confidence 7) [ADBCD68A] (AR v1)
Track 7 accurately ripped (confidence 7) [5B89455B] (AR v1)
Track 8 accurately ripped (confidence 7) [59B3790E] (AR v1)
Track 9 accurately ripped (confidence 7) [ECF969A4] (AR v1)
Track 10 accurately ripped (confidence 7) [E7EE0CF1] (AR v1)
Track 11 accurately ripped (confidence 7) [2BEB8338] (AR v1)
Track 12 accurately ripped (confidence 7) [4170F72B] (AR v1)
Track 13 accurately ripped (confidence 7) [87BEF1E6] (AR v1)

All tracks accurately ripped

End of status report

- CUETools DB Plugin V2.1.3

[CTDB TOCID: q_Cfq4ZFbxsr2xbY1S.u1oSSJBk-] found, Submit result: q_Cfq4ZFbxsr2xbY1S.u1oSSJBk- has been confirmed
[215f884a] (9/9) Accurately ripped

==== Log checksum 3BEFCE0E21A2EF1E848EEFE3A1EF6DB479A9570A3F3B45DAF5B3479A1829DC82 ====

foobar2000 1.2 / Dynamic Range Meter 1.1.1
log date: 2015-10-07 16:21:31

Analyzed: Slash / Apocalyptic Love [Roadrunner RR 7678-2]

DR Peak RMS Duration Track

DR7 0.00 dB -8.58 dB 3:29 01-Apocalyptic Love
DR7 0.00 dB -7.80 dB 3:10 02-One Last Thrill
DR7 0.00 dB -8.27 dB 4:04 03-Standing in the Sun
DR7 0.00 dB -8.58 dB 3:51 04-You're a Lie
DR7 0.00 dB -8.71 dB 4:24 05-No More Heroes
DR7 0.00 dB -8.30 dB 3:23 06-Halo
DR7 0.00 dB -8.78 dB 4:50 07-We Will Roam
DR7 0.00 dB -8.80 dB 6:07 08-Anastasia
DR7 0.00 dB -9.27 dB 5:22 09-Not for Me
DR7 0.00 dB -8.41 dB 3:47 10-Bad Rain
DR7 0.00 dB -8.16 dB 3:02 11-Hard & Fast
DR7 0.00 dB -10.46 dB 5:15 12-Far and Away
DR7 0.00 dB -8.99 dB 3:46 13-Shots Fired

Number of tracks: 13
Official DR value: DR7

Samplerate: 44100 Hz
Channels: 2
Bits per sample: 16
Bitrate: 980 kbps
Codec: FLAC

Slash - Apocalyptic Love (2012)

Slash - Apocalyptic Love (2012)

All thanks to original releaser - taurus66
Password: designol

DOWNLOAD LINKS
Buy Premium From My Links To Get Resumable Support & Max Speed & To Support Me


Links are Interchangeable - No Password - Single Extraction
Direct Download

Tags: Apocalyptic

Slash - Apocalyptic Love (2012) Download via Hotfile Rapidshare Fileserve Megaupload & FileSonic, Slash - Apocalyptic Love (2012) free torrent downloads included crack, serial, keygen.Slash - Apocalyptic Love (2012) Fast Download via Rapidshare Hotfile Fileserve Filesonic Megaupload, Slash - Apocalyptic Love (2012) Torrents and Emule Download or anything related.
Leave a Comment
Your Name:
E-Mail:
Add Comments:

Enter Code: