Perico Sambeat Sextet - Ziribuye (2005) {Contrabaix}

Download Now

Perico Sambeat Sextet - Ziribuye (2005) {Contrabaix}

Perico Sambeat Sextet - Ziribuye (2005) {Contrabaix}
EAC 1.0b2 | FLAC tracks level 8 | Cue+Log+M3U | Full Scans 600dpi | 400MB + 5% Recovery
Genre: Jazz, Post-Bop

"Ziribuye es un disco de jazz con mayúsculas, aquí no vemos a Perico con su vena flamenquita sino que vemos al Perico más hardbopero rodeado de un sexteto que tiene química y con unos temas de esos que se te meten en la cabeza. El sonido del sexteto está condicionado por la textura del teclado de José Reinoso ofreciendo un concepto muy parecido al quinteto de Raynald, que está soberbio en este Ziribuye. Paco también se sale y hace un precioso solo en Cató-scopio. En Rosa dels vents podemos oír a la hermana de Sambeat cantando una bonita canción."

Track List
01. Sunwind 7:44
02. Cató-Scopio 6:06
03. Soliloquio 7:27
04. Cyborg 7:33
05. Rosa Dels Vents 6:31
06. Ziribuye 5:52
07. Maya 2:13
08. Epicuro 6:09
09. Ni Mari Ni Hostias 5:52

musicians
Perico Sambeat - alto sax, flute on 7
Raynald Colom - trumpet, flugelhorn in item 3
Toni Belenguer - trombone
Jose Reinoso - piano, Fender piano, keyboards
Paco Charlin - bass, electric bass, cosmovibes
Marc Ayza - drums, percussion
with
Elma Sambeat - voice "Rosa dels Vents"
Albert Sanz - Zlot screams in "Ziribuye"

Produced by Perico Sambeat

Exact Audio Copy V1.0 beta 2 from 29. April 2011

EAC extraction logfile from 31. October 2011, 21:39

Perico Sambeat Sextet / Ziribuye

Used drive : PLEXTOR DVDR PX-L890SA Adapter: 2 ID: 1

Read mode : Secure
Utilize accurate stream : Yes
Defeat audio cache : Yes
Make use of C2 pointers : No

Read offset correction

: 6
Overread into Lead-In and Lead-Out : No
Fill up missing offset samples with silence : Yes
Delete leading and trailing silent blocks : No
Null samples used in CRC calculations : Yes
Used interface
: Native Win32 interface for Win NT & 2000
Gap handling
: Appended to previous track

Used output format : User Defined Encoder
Selected bitrate : 256 kBit/s
Quality : High
Add ID3 tag : No
Command line compressor : C:\Program Files (x86)\Exact Audio Copy\FLAC\FLAC.EXE
Additional command line options : -8 -V -T "ARTIST=%artist%" -T "TITLE=%title%" -T "ALBUM=%albumtitle%" -T "DATE=%year%" -T "TRACKNUMBER=%tracknr%" -T "TOTALTRACKS=%numtracks%" -T "GENRE=%genre%" -T "ALBUMARTIST=%albumartist%" -T "ALBUM ARTIST=%albumartist%

TOC of the extracted CD Track | Start | Length | Start sector | End sector
--1 | 0:00.00 | 7:44.38 | 0 | 34837 2 | 7:44.38 | 6:06.22 | 34838 | 62309 3 | 13:50.60 | 7:27.67 | 62310 | 95901 4 | 21:18.52 | 7:33.46 | 95902 | 129922 5 | 28:52.23 | 6:31.09 | 129923 | 159256 6 | 35:23.32 | 5:52.04 | 159257 | 185660 7 | 41:15.36 | 2:13.04 | 185661 | 195639 8 | 43:28.40 | 6:09.15 | 195640 | 223329 9 | 49:37.55 | 5:52.44 | 223330 | 249773

Track 1 Filename F:\Flac Rips\01 - Sunwind.wav Pre-gap length 0:00:02.00 Peak level 97.7 %
Extraction speed 3.8 X
Track quality 100.0 %
Test CRC FC1EF82A
Copy CRC FC1EF82A
Track not present in AccurateRip database
Copy OK

Track 2 Filename F:\Flac Rips\02 - Cato-scopio.wav Peak level 97.7 %
Extraction speed 4.4 X
Track quality 100.0 %
Test CRC 9270182A
Copy CRC 9270182A
Track not present in AccurateRip database
Copy OK

Track 3 Filename F:\Flac Rips\03 - Soliloquio.wav Peak level 97.7 %
Extraction speed 5.0 X
Track quality 100.0 %
Test CRC D9E686B1
Copy CRC D9E686B1
Track not present in AccurateRip database
Copy OK

Track 4 Filename F:\Flac Rips\04 - Cyborg.wav Peak level 97.7 %
Extraction speed 5.6 X
Track quality 100.0 %
Test CRC 7FE41387
Copy CRC 7FE41387
Track not present in AccurateRip database
Copy OK

Track 5 Filename F:\Flac Rips\05 - Rosa del vents.wav Peak level 97.7 %
Extraction speed 5.1 X
Track quality 99.9 %
Test CRC DACF2C5C
Copy CRC DACF2C5C
Track not present in AccurateRip database
Copy OK

Track 6 Filename F:\Flac Rips\06 - Ziribuye.wav Peak level 97.7 %
Extraction speed 6.3 X
Track quality 100.0 %
Test CRC B7895351
Copy CRC B7895351
Track not present in AccurateRip database
Copy OK

Track 7 Filename F:\Flac Rips\07 - Maya.wav Peak level 53.1 %
Extraction speed 5.6 X
Track quality 100.0 %
Test CRC 2C890E9F
Copy CRC 2C890E9F
Track not present in AccurateRip database
Copy OK

Track 8 Filename F:\Flac Rips\08 - Epicuro.wav Peak level 97.7 %
Extraction speed 5.8 X
Track quality 99.9 %
Test CRC 0E8ABC88
Copy CRC 0E8ABC88
Track not present in AccurateRip database
Copy OK

Track 9 Filename F:\Flac Rips\09 - Ni Mari ni Hostias.wav Peak level 97.7 %
Extraction speed 5.9 X
Track quality 99.9 %
Test CRC CC8805F5
Copy CRC CC8805F5
Track not present in AccurateRip database
Copy OK

None of the tracks are present in the AccurateRip database

No errors occurred

End of status report

==== Log checksum 457A6177D9B5BE41CD1AAAB53554B1F09039491108BE7841A1DACF01E786D8A8 ====

Analyzed: Perico Sambeat Sextet / Ziribuye

DR Peak RMS Duration Track

DR10 -0.20 dB -13.08 dB 7:45 01-Sunwind
DR11 -0.20 dB -13.10 dB 6:06 02-Cato-scopio
DR14 -0.20 dB -17.02 dB 7:28 03-Soliloquio
DR11 -0.20 dB -14.66 dB 7:34 04-Cyborg
DR12 -0.20 dB -14.77 dB 6:31 05-Rosa del vents
DR10 -0.20 dB -14.02 dB 5:52 06-Ziribuye
DR10 -5.49 dB -21.26 dB 2:13 07-Maya
DR10 -0.20 dB -11.72 dB 6:09 08-Epicuro
DR9 -0.20 dB -11.02 dB 5:53 09-Ni Mari ni Hostias

Number of tracks: 9
Official DR value: DR11

Samplerate: 44100 Hz
Channels: 2
Bits per sample: 16
Bitrate: 858 kbps
Codec: FLAC

Perico Sambeat Sextet - Ziribuye (2005) {Contrabaix}

Perico Sambeat Sextet - Ziribuye (2005) {Contrabaix}

Perico Sambeat Sextet - Ziribuye (2005) {Contrabaix}

Rip by jlgt


DOWNLOAD LINKS
Buy Premium From My Links To Get Resumable Support & Max Speed & To Support Me


Links are Interchangeable - No Password - Single Extraction
Direct Download

Tags: Perico, Sambeat, Sextet, Ziribuye, Contrabaix

Perico Sambeat Sextet - Ziribuye (2005) {Contrabaix} Download via Hotfile Rapidshare Fileserve Megaupload & FileSonic, Perico Sambeat Sextet - Ziribuye (2005) {Contrabaix} free torrent downloads included crack, serial, keygen.Perico Sambeat Sextet - Ziribuye (2005) {Contrabaix} Fast Download via Rapidshare Hotfile Fileserve Filesonic Megaupload, Perico Sambeat Sextet - Ziribuye (2005) {Contrabaix} Torrents and Emule Download or anything related.
Leave a Comment
Your Name:
E-Mail:
Add Comments:

Enter Code: