John Lydon - Psycho's Path (1997) [2015, Universal Music Japan, UICY-77457]

Download Now

John Lydon - Psycho's Path (1997) [2015, Universal Music Japan, UICY-77457]

John Lydon - Psycho's Path (1997)
EAC | Flac(Image) + Cue + Log & MP3 CBR 320Kbps
Universal Music Japan, UICY-77457 | ~ 527 or 171 Mb | Scans(png) -> 107 Mb
Alternative Rock / House

"For his first solo album, John Lydon decided to tentatively explore electronica without leaving behind the guitar growl that made the Sex Pistols' 1996 reunion a success. The guitars are woven into the electronic dance beats throughout Psycho's Path, which occasionally results in some exciting juxtapositions..."


Tracklist:

01 Grave Ride
02 Dog
03 Psychopath
04 Sun
05 Another Way
06 Dis-Ho
07 Take Me
08 A No And A Yes
09 Stump
10 Armies
11 Open Up (The Chemical Brothers Mix Edit)
12 Grave Ride (Moby Mix)
13 Sun (Leftfield Mix)
14 Psychopath (Leftfield Mix)
15 Stump (Danny Saber Mix)

Exact Audio Copy V1.1 from 23. June 2015

EAC extraction logfile from 20. September 2015, 10:35

John Lydon / Psycho's Path SHM-CD

Used drive : PLEXTOR BD-R PX-B950SA Adapter: 1 ID: 1

Read mode : Secure
Utilize accurate stream : Yes
Defeat audio cache : Yes
Make use of C2 pointers : No

Read offset correction

: 6
Overread into Lead-In and Lead-Out : No
Fill up missing offset samples with silence : Yes
Delete leading and trailing silent blocks : No
Null samples used in CRC calculations : Yes
Used interface
: Native Win32 interface for Win NT & 2000

Used output format : Internal WAV Routines
Sample format : 44.100 Hz; 16 Bit; Stereo

TOC of the extracted CD Track | Start | Length | Start sector | End sector
--1 | 0:00.00 | 4:28.59 | 0 | 20158 2 | 4:28.59 | 5:22.14 | 20159 | 44322 3 | 9:50.73 | 4:29.51 | 44323 | 64548 4 | 14:20.49 | 3:57.11 | 64549 | 82334 5 | 18:17.60 | 6:08.51 | 82335 | 109985 6 | 24:26.36 | 4:43.16 | 109986 | 131226 7 | 29:09.52 | 3:11.55 | 131227 | 145606 8 | 32:21.32 | 5:56.61 | 145607 | 172367 9 | 38:18.18 | 4:51.64 | 172368 | 194256
10 | 43:10.07 | 3:30.18 | 194257 | 210024
11 | 46:40.25 | 4:58.45 | 210025 | 232419
12 | 51:38.70 | 6:32.02 | 232420 | 261821
13 | 58:10.72 | 4:13.17 | 261822 | 280813
14 | 62:24.14 | 4:20.45 | 280814 | 300358
15 | 66:44.59 | 5:48.58 | 300359 | 326516

Range status and errors

Selected range Filename C:\Users\Meijin\Desktop\ALLexxess\PiL\1997 Psycho's Path (Mini LP SHM-CD Universal Japan 2015)\John Lydon - Psycho's Path SHM-CD.wav Peak level 98.1 %
Extraction speed 8.2 X
Range quality 100.0 %
Test CRC 4737FCD9
Copy CRC 4737FCD9
Copy OK

No errors occurred


AccurateRip summary

Track 1 cannot be verified as accurate (confidence 2) [DBA43999], AccurateRip returned [4FA22855] (AR v2)
Track 2 cannot be verified as accurate (confidence 2) [63CBBA4B], AccurateRip returned [6E0E0E40] (AR v2)
Track 3 cannot be verified as accurate (confidence 2) [4C1CEFC2], AccurateRip returned [7D9D5068] (AR v2)
Track 4 cannot be verified as accurate (confidence 2) [5C453B9F], AccurateRip returned [F24520AD] (AR v2)
Track 5 cannot be verified as accurate (confidence 2) [906E708D], AccurateRip returned A4E50AA (AR v2)
Track 6 cannot be verified as accurate (confidence 2) 6E058E9, AccurateRip returned [9B826B10] (AR v2)
Track 7 cannot be verified as accurate (confidence 2) [75D76EF2], AccurateRip returned [4AB431A8] (AR v2)
Track 8 cannot be verified as accurate (confidence 2) [84F80020], AccurateRip returned [9C22F393] (AR v2)
Track 9 cannot be verified as accurate (confidence 2) [F6ECF3F3], AccurateRip returned [287A143A] (AR v2)
Track 10 cannot be verified as accurate (confidence 2) [09EC56AE], AccurateRip returned [75458D6D] (AR v2)
Track 11 cannot be verified as accurate (confidence 2) [7EF6BE3B], AccurateRip returned [6002CEEF] (AR v2)
Track 12 cannot be verified as accurate (confidence 2) [C3FCA36F], AccurateRip returned [CFF3EC0C] (AR v2)
Track 13 cannot be verified as accurate (confidence 2) [FB69FFDF], AccurateRip returned [4F78F3D3] (AR v2)
Track 14 cannot be verified as accurate (confidence 2) [721437C2], AccurateRip returned [295E4B3E] (AR v2)
Track 15 cannot be verified as accurate (confidence 2) [3B2EE51C], AccurateRip returned [3647E64C] (AR v2)

No tracks could be verified as accurate
You may have a different pressing from the one(s) in the database

End of status report

- CUETools DB Plugin V2.1.6

[CTDB TOCID: 8Vso6UH9WEG1vy9TCu_ZB9ICAIs-] found
Submit result: 8Vso6UH9WEG1vy9TCu_ZB9ICAIs- has been confirmed
Track | CTDB Status
1 | (3/3) Accurately ripped
2 | (3/3) Accurately ripped
3 | (3/3) Accurately ripped
4 | (3/3) Accurately ripped
5 | (3/3) Accurately ripped
6 | (3/3) Accurately ripped
7 | (3/3) Accurately ripped
8 | (3/3) Accurately ripped
9 | (3/3) Accurately ripped
10 | (3/3) Accurately ripped
11 | (3/3) Accurately ripped
12 | (3/3) Accurately ripped
13 | (3/3) Accurately ripped
14 | (3/3) Accurately ripped
15 | (3/3) Accurately ripped

==== Log checksum 154B066820C273503FD2BFC16C0A017B202A3F8EAA561ED8D7B72833E23A00A9 ====

foobar2000 1.2.9 / Dynamic Range Meter 1.1.1
log date: 2015-10-08 18:04:26

Analyzed: John Lydon / Psycho's Path SHM-CD

DR Peak RMS Duration Track

DR8 -0.17 dB -9.30 dB 4:29 01-Grave Ride
DR7 -0.17 dB -9.28 dB 5:22 02-Dog
DR8 -0.17 dB -10.35 dB 4:30 03-Psychopath
DR9 -0.17 dB -10.49 dB 3:57 04-Sun
DR8 -0.17 dB -9.64 dB 6:09 05-Another Way
DR7 -0.17 dB -8.88 dB 4:43 06-Dis-Ho
DR7 -0.17 dB -8.50 dB 3:12 07-Take Me
DR8 -0.17 dB -9.34 dB 5:57 08-A No And A Yes
DR7 -0.17 dB -8.35 dB 4:52 09-Stump
DR7 -0.17 dB -8.68 dB 3:30 10-Armies
DR7 -0.17 dB -8.47 dB 4:59 11-Open Up (The Chemical Brothers Mix Edit)
DR7 -0.17 dB -8.86 dB 6:32 12-Grave Ride (Moby Mix)
DR7 -0.17 dB -8.22 dB 4:13 13-Sun (Leftfield Mix)
DR8 -0.17 dB -9.98 dB 4:21 14-Psychopath (Leftfield Mix)
DR8 -0.17 dB -9.52 dB 5:49 15-Stump (Danny Saber Mix)

Number of tracks: 15
Official DR value: DR8

Samplerate: 44100 Hz
Channels: 2
Bits per sample: 16
Bitrate: 955 kbps
Codec: FLAC

[CUETools log; Date: 08.10.2015 17:45:13; Version: 2.1.4]
[CTDB TOCID: 8Vso6UH9WEG1vy9TCu_ZB9ICAIs-] found.
Track | CTDB Status
1 | (4/4) Accurately ripped
2 | (4/4) Accurately ripped
3 | (4/4) Accurately ripped
4 | (4/4) Accurately ripped
5 | (4/4) Accurately ripped
6 | (4/4) Accurately ripped
7 | (4/4) Accurately ripped
8 | (4/4) Accurately ripped
9 | (4/4) Accurately ripped
10 | (4/4) Accurately ripped
11 | (4/4) Accurately ripped
12 | (4/4) Accurately ripped
13 | (4/4) Accurately ripped
14 | (4/4) Accurately ripped
15 | (4/4) Accurately ripped
[AccurateRip ID: 00275180-01be3c28-c711010f] found.
Track [ CRC | V2 ] Status
01 [8fc191aa|dba43999] (0+0/2) No match
02 [e7bb169e|63cbba4b] (0+0/2) No match
03 [268946e9|4c1cefc2] (0+0/2) No match
04 [a22cc8b0|5c453b9f] (0+0/2) No match
05 [e9996611|906e708d] (0+0/2) No match
06 95f01f3|b6e058e9 (0+0/2) No match
07 [5455bc82|75d76ef2] (0+0/2) No match
08 [3b36ea8f|84f80020] (0+0/2) No match
09 [1a1b37eb|f6ecf3f3] (0+0/2) No match
10 [597a8d21|09ec56ae] (0+0/2) No match
11 [a60d8ae4|7ef6be3b] (0+0/2) No match
12 [22146177|c3fca36f] (0+0/2) No match
13 [2960c98b|fb69ffdf] (0+0/2) No match
14 [65e4c1ba|721437c2] (0+0/2) No match
15 [ec4cd14c|3b2ee51c] (0+0/2) No match
Offsetted by 13:
01 [04298666] (0/2) No match (V2 was not tested)
02 [f27538df] (0/2) No match (V2 was not tested)
03 [5865c7e3] (0/2) No match (V2 was not tested)
04 [38848718] (0/2) No match (V2 was not tested)
05 [130c0d69] (0/2) No match (V2 was not tested)
06 [9e523964] (0/2) No match (V2 was not tested)
07 [29f6b473] (0/2) No match (V2 was not tested)
08 [52d0ea77] (0/2) No match (V2 was not tested)
09 [4cd9a913] (0/2) No match (V2 was not tested)
10 [c5201857] (0/2) No match (V2 was not tested)
11 [86b57d90] (0/2) No match (V2 was not tested)
12 [2d94bced] (0/2) No match (V2 was not tested)
13 [7e6dc4f5] (0/2) No match (V2 was not tested)
14 [1d7abd0b] (0/2) No match (V2 was not tested)
15 [ed56e142] (0/2) No match (V2 was not tested)

Track Peak [ CRC32 ] [W/O NULL] [ LOG ]
-- 98,1 [4737FCD9] [A19669F1] CRC32
01 98,1 [D434A8A6] [AD9F69ED]
02 98,1 [90BAF680] [DFDD3F25]
03 98,1 [99594A28] [7AAE5440]
04 98,1 [95BAC885] [5A16A024]
05 98,1 [2319062C] [DC55643C]
06 98,1 [56DBC572] 5E73692
07 98,1 [DC8ECA3B] [79735C2F]
08 98,1 [210E2175] [9FDEAAB7]
09 98,1 [C330E986] [54CB6E4D]
10 98,1 [468E501C] [966D0892]
11 98,1 [F322845C] [CD6DA925]
12 98,1 [D657975A] [43608EC4]
13 98,1 [EA7EB8A6] [FEA0AB06]
14 98,1 [395AED44] [A7D5ACBD]
15 98,1 [E56343D5] [67909875]

John Lydon - Psycho's Path (1997) [2015, Universal Music Japan, UICY-77457]

DOWNLOAD LINKS
Buy Premium From My Links To Get Resumable Support & Max Speed & To Support Me


Links are Interchangeable - No Password - Single Extraction
Direct Download

Tags: Psycho, Universal

John Lydon - Psycho's Path (1997) [2015, Universal Music Japan, UICY-77457] Download via Hotfile Rapidshare Fileserve Megaupload & FileSonic, John Lydon - Psycho's Path (1997) [2015, Universal Music Japan, UICY-77457] free torrent downloads included crack, serial, keygen.John Lydon - Psycho's Path (1997) [2015, Universal Music Japan, UICY-77457] Fast Download via Rapidshare Hotfile Fileserve Filesonic Megaupload, John Lydon - Psycho's Path (1997) [2015, Universal Music Japan, UICY-77457] Torrents and Emule Download or anything related.
Leave a Comment
Your Name:
E-Mail:
Add Comments:

Enter Code: