Jamey Aebersold - Volume 1, How To Play Jazz And Improvise (1979)

Download Now

Jamey Aebersold - Volume 1, How To Play Jazz And Improvise (1979)

Jamey Aebersold - Volume 1, How To Play Jazz And Improvise (1979)
EAC Rip | FLAC with CUE and log | scans | 217 mb
MP3 CBR 320kbps | RAR | 86 mb
Genre: jazz

Volume 1, How To Play Jazz And Improvise is a 1979 album by Jamey Aebersold. This was originally sold with a book and the CD version (which this is taken from) also came with one, but this file does not include the book, just the music. There is a second version of the CD with bonus tracks but this is from the original CD documenting the album's original eleven songs. It is meant to be a teaching course on how to play jazz or play jazz better.
Jamey Aebersold - Volume 1, How To Play Jazz And Improvise (1979)

Jamey Aebersold - Volume 1, How To Play Jazz And Improvise (1979)

1. Tuning Notes b And A Concert
2. F Minor, E Flat Minor, D Minor [8 Bars Each]
3. F Minor, E Flat Minor, D Minor [4 Bars Each]
4. Random Minor Chords [8 Bars Each]
5. Random Minor Chords [4 Bars Each]
6. Four Measure Cadences [ll/V7/l]
7. Blues In Key Of B Flat Concert
8. Blues In Key Of F Concert
9. Cycle Of Dominant 7th's [4 Bars Each]
10. 24-measure Song
11. Minor To Dominant Progression [12 Keys]

Exact Audio Copy V1.1 from 23. June 2015

EAC extraction logfile from 6. October 2015, 14:41

Jamey Aebersold / Volume 1 - How To Play Jazz And Improvise

Used drive : TEAC DVD-ROM DV-28SW Adapter: 1 ID: 0

Read mode : Secure
Utilize accurate stream : Yes
Defeat audio cache : Yes
Make use of C2 pointers : No

Read offset correction

: 6
Overread into Lead-In and Lead-Out : No
Fill up missing offset samples with silence : Yes
Delete leading and trailing silent blocks : No
Null samples used in CRC calculations : Yes
Used interface
: Native Win32 interface for Win NT & 2000
Gap handling
: Appended to previous track

Used output format : Internal WAV Routines
Sample format : 44.100 Hz; 16 Bit; Stereo

TOC of the extracted CD Track | Start | Length | Start sector | End sector
--1 | 0:00.00 | 0:44.30 | 0 | 3329 2 | 0:44.30 | 3:18.50 | 3330 | 18229 3 | 4:03.05 | 3:25.62 | 18230 | 33666 4 | 7:28.67 | 5:36.13 | 33667 | 58879 5 | 13:05.05 | 3:15.35 | 58880 | 73539 6 | 16:20.40 | 3:13.67 | 73540 | 88081 7 | 19:34.32 | 4:28.22 | 88082 | 108203 8 | 24:02.54 | 4:03.53 | 108204 | 126481 9 | 28:06.32 | 3:22.20 | 126482 | 141651
10 | 31:28.52 | 3:52.55 | 141652 | 159106
11 | 35:21.32 | 3:52.43 | 159107 | 176549

Track 1 Filename C:\My Documents\My FLAC\Jamey Aebersold - Volume 1, How To Play Jazz And Improvise (1979) [FLAC]\01 - Tuning Notes.wav Pre-gap length 0:00:02.00 Peak level 93.2 %
Extraction speed 1.7 X
Track quality 100.0 %
Test CRC 9925C9EB
Copy CRC 9925C9EB
Cannot be verified as accurate (confidence 2) [033FC79D], AccurateRip returned [E1E2CB79] (AR v2)
Copy OK

Track 2 Filename C:\My Documents\My FLAC\Jamey Aebersold - Volume 1, How To Play Jazz And Improvise (1979) [FLAC]\02 - F minor, E flat minor, D minor (8 bars ea.).wav Pre-gap length 0:00:04.58 Peak level 89.7 %
Extraction speed 2.8 X
Track quality 100.0 %
Test CRC EC339D04
Copy CRC EC339D04
Cannot be verified as accurate (confidence 2) [E9B1B0F0], AccurateRip returned [E02B9093] (AR v2)
Copy OK

Track 3 Filename C:\My Documents\My FLAC\Jamey Aebersold - Volume 1, How To Play Jazz And Improvise (1979) [FLAC]\03 - F minor, E flat minor, D minor (4 bars ea.).wav Pre-gap length 0:00:07.48 Peak level 92.1 %
Extraction speed 2.5 X
Track quality 99.9 %
Test CRC E4A2DB71
Copy CRC E4A2DB71
Cannot be verified as accurate (confidence 2) [0BBB9034], AccurateRip returned [22181402] (AR v2)
Copy OK

Track 4 Filename C:\My Documents\My FLAC\Jamey Aebersold - Volume 1, How To Play Jazz And Improvise (1979) [FLAC]\04 - Random minor chords (8 bars ea.).wav Pre-gap length 0:00:08.07 Peak level 87.1 %
Extraction speed 3.5 X
Track quality 100.0 %
Test CRC 5F4B8C97
Copy CRC 5F4B8C97
Cannot be verified as accurate (confidence 2) [62B3A5FD], AccurateRip returned [DC764BA3] (AR v2)
Copy OK

Track 5 Filename C:\My Documents\My FLAC\Jamey Aebersold - Volume 1, How To Play Jazz And Improvise (1979) [FLAC]\05 - Random minor chords (4 bars ea.).wav Pre-gap length 0:00:08.65 Peak level 100.0 %
Extraction speed 3.5 X
Track quality 100.0 %
Test CRC 37E53E69
Copy CRC 37E53E69
Cannot be verified as accurate (confidence 2) [D078BC12], AccurateRip returned [752D036B] (AR v2)
Copy OK

Track 6 Filename C:\My Documents\My FLAC\Jamey Aebersold - Volume 1, How To Play Jazz And Improvise (1979) [FLAC]\06 - Four measure cadences.wav Pre-gap length 0:00:07.43 Peak level 99.8 %
Extraction speed 3.0 X
Track quality 99.9 %
Test CRC B81BCBE5
Copy CRC B81BCBE5
Cannot be verified as accurate (confidence 2) [34C66E19], AccurateRip returned [E276B458] (AR v2)
Copy OK

Track 7 Filename C:\My Documents\My FLAC\Jamey Aebersold - Volume 1, How To Play Jazz And Improvise (1979) [FLAC]\07 - Blues in B flat.wav Pre-gap length 0:00:04.40 Peak level 95.0 %
Extraction speed 4.1 X
Track quality 100.0 %
Test CRC 8C7D5300
Copy CRC 8C7D5300
Cannot be verified as accurate (confidence 2) [C171AED3], AccurateRip returned [E6EC373F] (AR v2)
Copy OK

Track 8 Filename C:\My Documents\My FLAC\Jamey Aebersold - Volume 1, How To Play Jazz And Improvise (1979) [FLAC]\08 - Blues in F.wav Pre-gap length 0:00:05.44 Peak level 89.5 %
Extraction speed 3.6 X
Track quality 99.9 %
Test CRC 001C4746
Copy CRC 001C4746
Cannot be verified as accurate (confidence 2) [CFD4E9CE], AccurateRip returned [37BCF90B] (AR v2)
Copy OK

Track 9 Filename C:\My Documents\My FLAC\Jamey Aebersold - Volume 1, How To Play Jazz And Improvise (1979) [FLAC]\09 - Cycle of Dominant 7th chords (4 bars ea.).wav Pre-gap length 0:00:05.42 Peak level 87.2 %
Extraction speed 3.8 X
Track quality 100.0 %
Test CRC 19F72AB5
Copy CRC 19F72AB5
Cannot be verified as accurate (confidence 2) [346BA3DD], AccurateRip returned [76D264CB] (AR v2)
Copy OK

Track 10 Filename C:\My Documents\My FLAC\Jamey Aebersold - Volume 1, How To Play Jazz And Improvise (1979) [FLAC]\10 - 24-measure song.wav Pre-gap length 0:00:06.32 Peak level 80.0 %
Extraction speed 3.7 X
Track quality 99.9 %
Test CRC 3D905E8D
Copy CRC 3D905E8D
Cannot be verified as accurate (confidence 2) [42E45DD1], AccurateRip returned [6C714E43] (AR v2)
Copy OK

Track 11 Filename C:\My Documents\My FLAC\Jamey Aebersold - Volume 1, How To Play Jazz And Improvise (1979) [FLAC]\11 - Minor to Dominant progression (12 keys).wav Pre-gap length 0:00:05.56 Peak level 99.9 %
Extraction speed 4.6 X
Track quality 100.0 %
Test CRC F3D8AA41
Copy CRC F3D8AA41
Cannot be verified as accurate (confidence 2) [80943DEB], AccurateRip returned [C635CEB0] (AR v2)
Copy OK

No tracks could be verified as accurate
You may have a different pressing from the one(s) in the database

No errors occurred

End of status report

- CUETools DB Plugin V2.1.6

[CTDB TOCID: A0NBKJ4zCKkzU6lUjOz43Q_doQw-] found
Submit result: A0NBKJ4zCKkzU6lUjOz43Q_doQw- has been confirmed
Track | CTDB Status
1 | (5/5) Accurately ripped
2 | (5/5) Accurately ripped
3 | (5/5) Accurately ripped
4 | (5/5) Accurately ripped
5 | (5/5) Accurately ripped
6 | (5/5) Accurately ripped
7 | (5/5) Accurately ripped
8 | (5/5) Accurately ripped
9 | (5/5) Accurately ripped
10 | (5/5) Accurately ripped
11 | (4/5) Accurately ripped

==== Log checksum D203C44F6453CD1296888D9297D2034D95360D5960CBD6782FA0C47F9739E62D ====
DOWNLOAD LINKS
Buy Premium From My Links To Get Resumable Support & Max Speed & To Support Me


Links are Interchangeable - No Password - Single Extraction
Direct Download

Tags: Aebersold, Improvise

Jamey Aebersold - Volume 1, How To Play Jazz And Improvise (1979) Download via Hotfile Rapidshare Fileserve Megaupload & FileSonic, Jamey Aebersold - Volume 1, How To Play Jazz And Improvise (1979) free torrent downloads included crack, serial, keygen.Jamey Aebersold - Volume 1, How To Play Jazz And Improvise (1979) Fast Download via Rapidshare Hotfile Fileserve Filesonic Megaupload, Jamey Aebersold - Volume 1, How To Play Jazz And Improvise (1979) Torrents and Emule Download or anything related.
Leave a Comment
Your Name:
E-Mail:
Add Comments:

Enter Code: