Thin Lizzy - Live And Dangerous (1978) [1990, Japan]

Download Now

Thin Lizzy - Live And Dangerous (1978) [1990, Japan]

Thin Lizzy - Live And Dangerous (1978)
EAC Rip | FLAC (Img) + Cue + Log ~ 528 Mb | MP3 CBR320 ~ 214 Mb
Scans Included (JPG, 300 dpi) | RAR 5% Recovery
Hard/Blues/Classic Rock | Vertigo #PHCR-2032

"Released in 1978, just as the hot streak starting with 1975's Fighting and running through 1977's Bad Reputation came to an end, Live and Dangerous was a glorious way to celebrate Thin Lizzy's glory days and one of the best double live LPs of the 70s. Of course, this, like a lot of double-lives of that decade -- Kiss' Alive! immediately springs to mind -- isn't strictly live; it was overdubbed and colored in the studio (the very presence of studio whiz Tony Visconti as producer should have been an indication that some corrective steering may have been afoot). But even if there was some tweaking in the studio, Live and Dangerous feels live, containing more energy and power than the original LPs, which were already dynamic in their own right. It's this energy, combined with the expert song selection, that makes Live and Dangerous a true live classic."

Wiki | Discogs | All Music
***************

Thin Lizzy - Live And Dangerous (1978) [1990, Japan]

Track List:

01. Jailbreak [04:47]
02. Emerald [04:21]
03. Southbound [04:47]
04. Rosalie [04:05]
05. Dancing In The Moonlight [03:55]
06. Massacre [02:57]
07. Still In Love With You [07:42]
08. Johnny The Fox Meets Jimmy The Weed [03:41]
09. Cowboy Song [04:55]
10. The Boys Are Back In Town [04:42]
11. Don't Believe A Word [02:19]
12. Warrior [04:02]
13. Are You Ready [02:43]
14. Suicide [05:13]
15. Sha La La [05:35]
16. Baby Drives Me Crazy [07:16]
17. The Rocker [03:46]

Exact Audio Copy V1.0 beta 1 from 15. November 2010

EAC extraction logfile from 8. October 2015, 22:14

Thin Lizzy / Live and Dangerous

Used drive : MATSHITADVD-RAM UJ8A0AS Adapter: 0 ID: 1

Read mode : Secure
Utilize accurate stream : Yes
Defeat audio cache : Yes
Make use of C2 pointers : No

Read offset correction

: 102
Overread into Lead-In and Lead-Out : No
Fill up missing offset samples with silence : Yes
Delete leading and trailing silent blocks : No
Null samples used in CRC calculations : Yes
Used interface
: Native Win32 interface for Win NT & 2000

Used output format : Internal WAV Routines
Sample format : 44.100 Hz; 16 Bit; Stereo

TOC of the extracted CD Track | Start | Length | Start sector | End sector
--1 | 0:00.37 | 4:46.10 | 37 | 21496 2 | 4:46.47 | 4:20.63 | 21497 | 41059 3 | 9:07.35 | 4:46.65 | 41060 | 62574 4 | 13:54.25 | 4:04.45 | 62575 | 80919 5 | 17:58.70 | 3:54.12 | 80920 | 98481 6 | 21:53.07 | 2:56.33 | 98482 | 111714 7 | 24:49.40 | 7:41.30 | 111715 | 146319 8 | 32:30.70 | 3:40.55 | 146320 | 162874 9 | 36:11.50 | 4:54.65 | 162875 | 184989
10 | 41:06.40 | 4:41.32 | 184990 | 206096
11 | 45:47.72 | 2:18.65 | 206097 | 216511
12 | 48:06.62 | 4:01.25 | 216512 | 234611
13 | 52:08.12 | 2:42.25 | 234612 | 246786
14 | 54:50.37 | 5:13.00 | 246787 | 270261
15 | 60:03.37 | 5:34.05 | 270262 | 295316
16 | 65:37.42 | 7:15.10 | 295317 | 327951
17 | 72:52.52 | 3:45.23 | 327952 | 344849

Range status and errors

Selected range Filename C:\Users\Alex\Music\Alexharvey\Thin Lizzy - Live and Dangerous.wav Peak level 93.0 %
Extraction speed 0.0 X
Range quality 100.0 %
Test CRC BF838DCF
Copy CRC BF838DCF
Copy OK

No errors occurred


AccurateRip summary

Track 1 accurately ripped (confidence 13) [15CC10E0]
Track 2 accurately ripped (confidence 13) [932DC72F]
Track 3 accurately ripped (confidence 13) [C3F5668C]
Track 4 accurately ripped (confidence 13) [483BEED8]
Track 5 accurately ripped (confidence 13) [7C6CA209]
Track 6 accurately ripped (confidence 13) [0D5D5A9F]
Track 7 accurately ripped (confidence 13) [395ED491]
Track 8 accurately ripped (confidence 13) [50F9D871]
Track 9 accurately ripped (confidence 13) [A2D1C29F]
Track 10 accurately ripped (confidence 13) [23D07BC5]
Track 11 accurately ripped (confidence 13) [D5D62D52]
Track 12 accurately ripped (confidence 13) [1C695894]
Track 13 accurately ripped (confidence 13) [E4D5A938]
Track 14 accurately ripped (confidence 13) C66E9D4
Track 15 accurately ripped (confidence 13) [13DC6663]
Track 16 accurately ripped (confidence 13) [75ABEC0A]
Track 17 accurately ripped (confidence 13) [0C269E94]

All tracks accurately ripped

End of status report

==== Log checksum 7F7C025ED8A23CBA950098D95D2D58E29C263807C2C2A93373B322D34C92FA50 ====

foobar2000 1.2.6 / Dynamic Range Meter 1.1.1
log date: 2015-10-09 14:42:48

Analyzed: Thin Lizzy / Live and Dangerous

DR Peak RMS Duration Track

DR11 -3.75 dB -17.00 dB 4:46 01-Jailbreak
DR11 -3.12 dB -15.62 dB 4:21 02-Emerald
DR11 -4.22 dB -17.34 dB 4:47 03-Southbound
DR11 -5.90 dB -18.10 dB 4:05 04-Rosalie
DR12 -1.46 dB -16.70 dB 3:54 05-Dancing In The Moonlight
DR11 -0.63 dB -13.77 dB 2:56 06-Massacre
DR12 -1.44 dB -16.07 dB 7:41 07-Still In Love With You
DR13 -3.63 dB -18.45 dB 3:41 08-Johnny The Fox Meets Jimmy The Weed
DR11 -1.43 dB -15.57 dB 4:55 09-Cowboy Song
DR11 -2.43 dB -15.08 dB 4:41 10-The Boys Are Back In Town
DR12 -1.96 dB -15.53 dB 2:19 11-Don't Believe A Word
DR11 -2.00 dB -15.41 dB 4:01 12-Warrior
DR11 -3.75 dB -16.73 dB 2:42 13-Are You Ready
DR12 -2.45 dB -16.34 dB 5:13 14-Suicide
DR12 -2.14 dB -16.76 dB 5:34 15-Sha La La
DR12 -2.74 dB -17.97 dB 7:15 16-Baby Drives Me Crazy
DR12 -4.20 dB -18.08 dB 3:45 17-The Rocker

Number of tracks: 17
Official DR value: DR12

Samplerate: 44100 Hz
Channels: 2
Bits per sample: 16
Bitrate: 865 kbps
Codec: FLAC

[CUETools log; Date: 09.10.2015 14:42:49; Version: 2.1.5]
Pregap length 00:00:37.
[CTDB TOCID: 2HDXdMrP.VPkqqxmRVk88Sps7BU-] found.
Track | CTDB Status
1 | (7/7) Accurately ripped
2 | (7/7) Accurately ripped
3 | (7/7) Accurately ripped
4 | (7/7) Accurately ripped
5 | (7/7) Accurately ripped
6 | (7/7) Accurately ripped
7 | (7/7) Accurately ripped
8 | (7/7) Accurately ripped
9 | (7/7) Accurately ripped
10 | (7/7) Accurately ripped
11 | (7/7) Accurately ripped
12 | (7/7) Accurately ripped
13 | (7/7) Accurately ripped
14 | (7/7) Accurately ripped
15 | (7/7) Accurately ripped
16 | (7/7) Accurately ripped
17 | (7/7) Accurately ripped
[AccurateRip ID: 002e953c-024d2c2e-0b11f611] found.
Track [ CRC | V2 ] Status
01 [15cc10e0|dbb0d14b] (07+13/20) Accurately ripped
02 [932dc72f|fd80e9a4] (07+13/20) Accurately ripped
03 [c3f5668c|e1421356] (06+13/19) Accurately ripped
04 [483beed8|47bda092] (07+13/20) Accurately ripped
05 [7c6ca209|adbb13bf] (07+13/20) Accurately ripped
06 [0d5d5a9f|28b5aefb] (07+13/20) Accurately ripped
07 [395ed491|19b19c35] (07+13/20) Accurately ripped
08 [50f9d871|a090a310] (07+13/20) Accurately ripped
09 [a2d1c29f|3884572b] (07+13/20) Accurately ripped
10 [23d07bc5|e3aeacad] (07+13/20) Accurately ripped
11 [d5d62d52|658f75ef] (07+13/20) Accurately ripped
12 [1c695894|4c71b42a] (07+13/20) Accurately ripped
13 [e4d5a938|baa542a2] (07+13/20) Accurately ripped
14 c66e9d4|bf6b410f (07+13/20) Accurately ripped
15 [13dc6663|10960c3e] (07+13/20) Accurately ripped
16 [75abec0a|01783f6b] (07+13/20) Accurately ripped
17 [0c269e94|8e61e290] (07+13/20) Accurately ripped

Track Peak [ CRC32 ] [W/O NULL] [ LOG ]
-- 93,0 F838DCF [26F255C5] CRC32
01 64,9 [23CE8E18] [5F7868C7]
02 69,8 [04888CE4] [F612E32A]
03 61,5 [9CF7A26C] [7320353C]
04 50,6 [E0B8508E] [06E1DF46]
05 84,4 71AA0B1 [ACD6937A]
06 93,0 [2AD1A964] [307DC75D]
07 84,7 [5E84ABD8] [0809C97C]
08 65,8 [1AE14F4A] [9FC77453]
09 84,8 [3D5BAC92] [A89B2F5D]
10 75,6 [69F0A0C6] [22B3F2CE]
11 79,8 [337AB0BA] [11B2AFB2]
12 79,4 [05C55D08] [C63D33C5]
13 64,9 [3BE59E30] [D3BB2784]
14 75,4 [46DF8BE2] [6D1858E6]
15 78,1 [50D4FCA8] [E1AD7CF9]
16 72,9 [01ED72AF] [4A318CB2]
17 61,6 [7EB76AF0] [32DFE538]

Thin Lizzy - Live And Dangerous (1978) [1990, Japan]

Thin Lizzy - Live And Dangerous (1978) [1990, Japan]


DOWNLOAD LINKS
Buy Premium From My Links To Get Resumable Support & Max Speed & To Support Me


Links are Interchangeable - No Password - Single Extraction
Direct Download

Tags: Dangerous

Thin Lizzy - Live And Dangerous (1978) [1990, Japan] Download via Hotfile Rapidshare Fileserve Megaupload & FileSonic, Thin Lizzy - Live And Dangerous (1978) [1990, Japan] free torrent downloads included crack, serial, keygen.Thin Lizzy - Live And Dangerous (1978) [1990, Japan] Fast Download via Rapidshare Hotfile Fileserve Filesonic Megaupload, Thin Lizzy - Live And Dangerous (1978) [1990, Japan] Torrents and Emule Download or anything related.
Leave a Comment
Your Name:
E-Mail:
Add Comments:

Enter Code: