Franz Liszt - Annees de Pelerinage - Bertrand Chamayou (2011) [3CD Set] {Naive}

Download Now


Franz Liszt - Annees de Pelerinage - Bertrand Chamayou (2011) [3CD Set] {Naive}
Franz Liszt - Annees de Pelerinage - Bertrand Chamayou (2011) [3CD Set] {Naive}
EAC rip (secure mode) | FLAC (tracks)+CUE+LOG -> 443 Mb | MP3 @320 -> 389 Mb
Full Artwork @ 300 dpi (png) -> 370 Mb | 5% repair rar
© 2011 Naive | V 5260
Classical / Solo Piano

"Recorded in the spring and summer of 2011, Bertrand Chamayou's set of Franz Liszt's Années de pèlerinage (Years of Pilgrimage) was released just in time to honor the composer's 200th anniversary in October. That year saw a number of releases and reissues of the complete Années, and this ambitious collection of picturesque vignettes became increasingly popular despite its considerable length. The years in the title were the late 1830s, when Liszt and the Countess Marie d'Agoult traveled across Switzerland and Italy, and the pieces summon the full range of Romantic piano gestures and techniques, put at the service of poetic description and expressive power."

Franz Liszt - Annees de Pelerinage - Bertrand Chamayou (2011) [3CD Set] {Naive}

"Chamayou presents the music with great vitality and brilliance; indeed, the Années can only be played well by a virtuoso, which he certainly is. Yet there is always an undercurrent of reverie and restless wandering that he conveys, which shows a true sympathy with Liszt's aims, as well as an uncanny ability to create and maintain tension for extended periods, even when the music might offer some kind of resolution or release. A kind of "extreme pianist," Chamayou has dazzled critics with his concert performances of this expansive work, and he has impressed them with his stamina in pieces of similar difficulty and duration. The resonant recording in the Théâtre Auditorium de Poitiers adds a certain haziness in the soft, dreamlike sections, though loud passages and the most thunderous climaxes are sonorous and quite clear."


Franz Liszt - Annees de Pelerinage - Bertrand Chamayou (2011) [3CD Set] {Naive}


Presto Classical INFO

Personnel: Bertrand Chamayou - piano

tracklist:
CD1

01 - Premiere annee Suisse - I. Chapelle de Guillaume Tell
02 - Premiere annee Suisse - II. Au lac de Wallenstadt
03 - Premiere annee Suisse - III. Pastorale
04 - Premiere annee Suisse - IV. Au bord d'une source
05 - Premiere annee Suisse - V. Orage
06 - Premiere annee Suisse - VI. Vallee d'Obermann
07 - Premiere annee Suisse - VII. Eglogue
08 - Premiere annee Suisse - VIII. Le mal du pays
09 - Premiere annee Suisse - IX. Les cloches de Geneve

Franz Liszt - Annees de Pelerinage - Bertrand Chamayou (2011) [3CD Set] {Naive}


CD2
01 - Deuxieme annee Italie - I
02 - Deuxieme annee Italie - II. Il penseroso
03 - Deuxieme annee Italie - III. Canzonetta del Salvator Rosa
04 - Deuxieme annee Italie - IV. Sonetto 47 del Petrarca
05 - Deuxieme annee Italie - V. Sonetto 104 del Petrarca
06 - Deuxieme annee Italie - VI. Sonetto 123 del Petrarca
07 - Deuxieme annee Italie - VII. Apres une lecture de Dante, Fantasia quasi sonata
08 - Deuxieme annee Italie supplement Venezia e Napoli - I. Gondoliera
09 - Deuxieme annee Italie supplement Venezia e Napoli - II. Canzone
10 - Deuxieme annee Italie supplement Venezia e Napoli - III. Tarentella

Franz Liszt - Annees de Pelerinage - Bertrand Chamayou (2011) [3CD Set] {Naive}


CD3
01 - Troisieme annee - I. Angelus! Priere aux anges gardiens
02 - Troisieme annee - II. Aux cypres de la Villa d'Este. Threnodie (I)
03 - Troisieme annee - III. Aux cypres de la Villa d'Este. Threnodie (II)
04 - Troisieme annee - IV. Les jeux d'eau de la Villa d'Este
05 - Troisieme annee - V. Sunt lacrymae rerum. En mode hongrois
06 - Troisieme annee - VI. Marche funebre. En memoire de Maximilien I
07 - Troisieme annee - VII. Sursum corda. Erhebet eure Herzen

Franz Liszt - Annees de Pelerinage - Bertrand Chamayou (2011) [3CD Set] {Naive}



Exact Audio Copy V1.0 beta 3 from 29. August 2011

EAC extraction logfile from 16. April 2012, 12:25

Franz Liszt / Annees de Pelerinage CD1

Used drive : PLEXTOR DVDR PX-860A Adapter: 0 ID: 0

Read mode : Secure
Utilize accurate stream : Yes
Defeat audio cache : Yes
Make use of C2 pointers : No

Read offset correction

: 96
Overread into Lead-In and Lead-Out : No
Fill up missing offset samples with silence : Yes
Delete leading and trailing silent blocks : No
Null samples used in CRC calculations : Yes
Used interface
: Native Win32 interface for Win NT & 2000
Gap handling
: Appended to previous track

Used output format : User Defined Encoder
Selected bitrate : 1024 kBit/s
Quality : High
Add ID3 tag : No
Command line compressor : C:\Program Files\Exact Audio Copy\Flac\flac.exe
Additional command line options : -8 -V -T "ARTIST=%artist%" -T "TITLE=%title%" -T "ALBUM=%albumtitle%" -T "DATE=%year%" -T "TRACKNUMBER=%tracknr%" -T "GENRE=%genre%" -T "PERFORMER=%albuminterpret%" -T "COMPOSER=%composer%" %haslyrics%--tag-from-file=LYRICS="%lyricsfile%"%haslyrics% -T "ALBUMARTIST=%albumartist%" -T "DISCNUMBER=%cdnumber%" -T "TOTALDISCS=%totalcds%" -T "TOTALTRACKS=%numtracks%" -T "COMMENT=%comment%" %source% -o %dest%

TOC of the extracted CD Track | Start | Length | Start sector | End sector
--1 | 0:00.00 | 5:40.60 | 0 | 25559 2 | 5:40.60 | 2:41.21 | 25560 | 37655 3 | 8:22.06 | 1:32.53 | 37656 | 44608 4 | 9:54.59 | 3:49.39 | 44609 | 61822 5 | 13:44.23 | 4:17.46 | 61823 | 81143 6 | 18:01.69 | 13:03.15 | 81144 | 139883 7 | 31:05.09 | 2:50.03 | 139884 | 152636 8 | 33:55.12 | 4:42.14 | 152637 | 173800 9 | 38:37.26 | 6:15.12 | 173801 | 201937

Track 1 Filename I:\DL\Franz Liszt - Annees de Pelerinage CD1 (2011) [FLAC]\01 - Premiere annee Suisse - I. Chapelle de Guillaume Tell.wav Pre-gap length 0:00:02.00 Peak level 68.4 %
Extraction speed 4.5 X
Track quality 100.0 %
Test CRC B17C6792
Copy CRC B17C6792
Accurately ripped (confidence 1) [589157EF] (AR v1)
Copy OK

Track 2 Filename I:\DL\Franz Liszt - Annees de Pelerinage CD1 (2011) [FLAC]\02 - Premiere annee Suisse - II. Au lac de Wallenstadt.wav Peak level 17.4 %
Extraction speed 4.5 X
Track quality 100.0 %
Test CRC E365BC2C
Copy CRC E365BC2C
Accurately ripped (confidence 1) [D69E97FE] (AR v1)
Copy OK

Track 3 Filename I:\DL\Franz Liszt - Annees de Pelerinage CD1 (2011) [FLAC]\03 - Premiere annee Suisse - III. Pastorale.wav Peak level 36.9 %
Extraction speed 4.2 X
Track quality 100.0 %
Test CRC CE89109A
Copy CRC CE89109A
Accurately ripped (confidence 1) [81D08371] (AR v1)
Copy OK

Track 4 Filename I:\DL\Franz Liszt - Annees de Pelerinage CD1 (2011) [FLAC]\04 - Premiere annee Suisse - IV. Au bord d'une source.wav Peak level 45.7 %
Extraction speed 5.3 X
Track quality 100.0 %
Test CRC FFEDA3B0
Copy CRC FFEDA3B0
Accurately ripped (confidence 1) [F4049BBF] (AR v1)
Copy OK

Track 5 Filename I:\DL\Franz Liszt - Annees de Pelerinage CD1 (2011) [FLAC]\05 - Premiere annee Suisse - V. Orage.wav Peak level 93.7 %
Extraction speed 5.1 X
Track quality 99.9 %
Test CRC 084CA635
Copy CRC 084CA635
Accurately ripped (confidence 1) [10418828] (AR v1)
Copy OK

Track 6 Filename I:\DL\Franz Liszt - Annees de Pelerinage CD1 (2011) [FLAC]\06 - Premiere annee Suisse - VI. Vallee d'Obermann.wav Peak level 66.3 %
Extraction speed 6.7 X
Track quality 99.9 %
Test CRC 0320E070
Copy CRC 0320E070
Accurately ripped (confidence 1) [EAF8F11A] (AR v1)
Copy OK

Track 7 Filename I:\DL\Franz Liszt - Annees de Pelerinage CD1 (2011) [FLAC]\07 - Premiere annee Suisse - VII. Eglogue.wav Peak level 33.9 %
Extraction speed 6.4 X
Track quality 100.0 %
Test CRC 6FA84D6C
Copy CRC 6FA84D6C
Accurately ripped (confidence 1) [47E7D04B] (AR v1)
Copy OK

Track 8 Filename I:\DL\Franz Liszt - Annees de Pelerinage CD1 (2011) [FLAC]\08 - Premiere annee Suisse - VIII. Le mal du pays.wav Peak level 38.1 %
Extraction speed 6.5 X
Track quality 99.9 %
Test CRC A56A0B51
Copy CRC A56A0B51
Accurately ripped (confidence 1) [AA95535C] (AR v1)
Copy OK

Track 9 Filename I:\DL\Franz Liszt - Annees de Pelerinage CD1 (2011) [FLAC]\09 - Premiere annee Suisse - IX. Les cloches de Geneve.wav Peak level 47.7 %
Extraction speed 7.1 X
Track quality 99.9 %
Test CRC 0DC8CA4A
Copy CRC 0DC8CA4A
Accurately ripped (confidence 1) [D6062199] (AR v1)
Copy OK

All tracks accurately ripped

No errors occurred

End of status report

- CUETools DB Plugin V2.1.3

[CTDB TOCID: v92LRgm7WcWMeYonavOZz8JrviE-] found, Submit result: v92LRgm7WcWMeYonavOZz8JrviE- has been confirmed
[3ecc8955] (2/2) Accurately ripped

==== Log checksum 144CF37C990AECE30E276940CBCA37406AA540A76C6D002F3C15BD33E927B2DA ====

Exact Audio Copy V1.0 beta 3 from 29. August 2011

EAC extraction logfile from 16. April 2012, 12:49

Franz Liszt / Annees de Pelerinage CD2

Used drive : PLEXTOR DVDR PX-860A Adapter: 0 ID: 0

Read mode : Secure
Utilize accurate stream : Yes
Defeat audio cache : Yes
Make use of C2 pointers : No

Read offset correction

: 96
Overread into Lead-In and Lead-Out : No
Fill up missing offset samples with silence : Yes
Delete leading and trailing silent blocks : No
Null samples used in CRC calculations : Yes
Used interface
: Native Win32 interface for Win NT & 2000
Gap handling
: Appended to previous track

Used output format : User Defined Encoder
Selected bitrate : 1024 kBit/s
Quality : High
Add ID3 tag : No
Command line compressor : C:\Program Files\Exact Audio Copy\Flac\flac.exe
Additional command line options : -8 -V -T "ARTIST=%artist%" -T "TITLE=%title%" -T "ALBUM=%albumtitle%" -T "DATE=%year%" -T "TRACKNUMBER=%tracknr%" -T "GENRE=%genre%" -T "PERFORMER=%albuminterpret%" -T "COMPOSER=%composer%" %haslyrics%--tag-from-file=LYRICS="%lyricsfile%"%haslyrics% -T "ALBUMARTIST=%albumartist%" -T "DISCNUMBER=%cdnumber%" -T "TOTALDISCS=%totalcds%" -T "TOTALTRACKS=%numtracks%" -T "COMMENT=%comment%" %source% -o %dest%

TOC of the extracted CD Track | Start | Length | Start sector | End sector
--1 | 0:00.00 | 6:47.55 | 0 | 30579 2 | 6:47.55 | 3:04.04 | 30580 | 44383 3 | 9:51.59 | 2:46.46 | 44384 | 56879 4 | 12:38.30 | 4:35.57 | 56880 | 77561 5 | 17:14.12 | 5:29.31 | 77562 | 102267 6 | 22:43.43 | 5:44.53 | 102268 | 128120 7 | 28:28.21 | 15:35.19 | 128121 | 198264 8 | 44:03.40 | 4:52.06 | 198265 | 220170 9 | 48:55.46 | 3:27.61 | 220171 | 235756
10 | 52:23.32 | 8:35.28 | 235757 | 274409

Track 1 Filename I:\DL\Franz Liszt - Annees de Pelerinage CD2 (2011) [FLAC]\01 - Deuxieme annee Italie - I.wav Pre-gap length 0:00:02.00 Peak level 73.8 %
Extraction speed 4.7 X
Track quality 100.0 %
Test CRC 65984FBD
Copy CRC 65984FBD
Accurately ripped (confidence 1) [4A8BADBB] (AR v1)
Copy OK

Track 2 Filename I:\DL\Franz Liszt - Annees de Pelerinage CD2 (2011) [FLAC]\02 - Deuxieme annee Italie - II. Il penseroso.wav Peak level 55.6 %
Extraction speed 4.8 X
Track quality 100.0 %
Test CRC F3CDD37E
Copy CRC F3CDD37E
Accurately ripped (confidence 1) [C70E02F4] (AR v1)
Copy OK

Track 3 Filename I:\DL\Franz Liszt - Annees de Pelerinage CD2 (2011) [FLAC]\03 - Deuxieme annee Italie - III. Canzonetta del Salvator Rosa.wav Peak level 50.2 %
Extraction speed 4.2 X
Track quality 99.9 %
Test CRC CCC62FB6
Copy CRC CCC62FB6
Accurately ripped (confidence 1) [992BA7BB] (AR v1)
Copy OK

Track 4 Filename I:\DL\Franz Liszt - Annees de Pelerinage CD2 (2011) [FLAC]\04 - Deuxieme annee Italie - IV. Sonetto 47 del Petrarca.wav Peak level 39.5 %
Extraction speed 5.7 X
Track quality 100.0 %
Test CRC AF2CF1C6
Copy CRC AF2CF1C6
Accurately ripped (confidence 1) [3B761ADB] (AR v1)
Copy OK

Track 5 Filename I:\DL\Franz Liszt - Annees de Pelerinage CD2 (2011) [FLAC]\05 - Deuxieme annee Italie - V. Sonetto 104 del Petrarca.wav Peak level 62.3 %
Extraction speed 6.2 X
Track quality 100.0 %
Test CRC DC496D59
Copy CRC DC496D59
Accurately ripped (confidence 1) [DEE393DB] (AR v1)
Copy OK

Track 6 Filename I:\DL\Franz Liszt - Annees de Pelerinage CD2 (2011) [FLAC]\06 - Deuxieme annee Italie - VI. Sonetto 123 del Petrarca.wav Peak level 58.6 %
Extraction speed 6.6 X
Track quality 100.0 %
Test CRC 5F3E7D4F
Copy CRC 5F3E7D4F
Accurately ripped (confidence 1) [9B75F5A7] (AR v1)
Copy OK

Track 7 Filename I:\DL\Franz Liszt - Annees de Pelerinage CD2 (2011) [FLAC]\07 - Deuxieme annee Italie - VII. Apres une lecture de Dante, Fantasia quasi sonata.wav Peak level 81.8 %
Extraction speed 7.5 X
Track quality 99.9 %
Test CRC C09F18BC
Copy CRC C09F18BC
Accurately ripped (confidence 1) [53E79590] (AR v1)
Copy OK

Track 8 Filename I:\DL\Franz Liszt - Annees de Pelerinage CD2 (2011) [FLAC]\08 - Deuxieme annee Italie supplement Venezia e Napoli - I. Gondoliera.wav Peak level 27.1 %
Extraction speed 7.8 X
Track quality 100.0 %
Test CRC 635C9DFD
Copy CRC 635C9DFD
Accurately ripped (confidence 1) [380EAF6D] (AR v1)
Copy OK

Track 9 Filename I:\DL\Franz Liszt - Annees de Pelerinage CD2 (2011) [FLAC]\09 - Deuxieme annee Italie supplement Venezia e Napoli - II. Canzone.wav Peak level 33.2 %
Extraction speed 6.7 X
Track quality 99.9 %
Test CRC C642CD7E
Copy CRC C642CD7E
Accurately ripped (confidence 1) [5073D515] (AR v1)
Copy OK

Track 10 Filename I:\DL\Franz Liszt - Annees de Pelerinage CD2 (2011) [FLAC]\10 - Deuxieme annee Italie supplement Venezia e Napoli - III. Tarentella.wav Peak level 70.0 %
Extraction speed 8.7 X
Track quality 100.0 %
Test CRC 89F09592
Copy CRC 89F09592
Accurately ripped (confidence 1) [4C2A6870] (AR v1)
Copy OK

All tracks accurately ripped

No errors occurred

End of status report

- CUETools DB Plugin V2.1.3

[CTDB TOCID: Pqk5x0BrE5riGeFtkPaAzHlMSpY-] found, Submit result: Pqk5x0BrE5riGeFtkPaAzHlMSpY- has been confirmed
[5e3eff00] (2/2) Accurately ripped

==== Log checksum 642EBA5A63A4CC97CEEF3B9F511A3334D86543B0F84340117771BB4E9B43D99C ====

Exact Audio Copy V1.0 beta 3 from 29. August 2011

EAC extraction logfile from 16. April 2012, 13:15

Franz Liszt / Annees de Pelerinage CD3

Used drive : PLEXTOR DVDR PX-860A Adapter: 0 ID: 0

Read mode : Secure
Utilize accurate stream : Yes
Defeat audio cache : Yes
Make use of C2 pointers : No

Read offset correction

: 96
Overread into Lead-In and Lead-Out : No
Fill up missing offset samples with silence : Yes
Delete leading and trailing silent blocks : No
Null samples used in CRC calculations : Yes
Used interface
: Native Win32 interface for Win NT & 2000
Gap handling
: Appended to previous track

Used output format : User Defined Encoder
Selected bitrate : 1024 kBit/s
Quality : High
Add ID3 tag : No
Command line compressor : C:\Program Files\Exact Audio Copy\Flac\flac.exe
Additional command line options : -8 -V -T "ARTIST=%artist%" -T "TITLE=%title%" -T "ALBUM=%albumtitle%" -T "DATE=%year%" -T "TRACKNUMBER=%tracknr%" -T "GENRE=%genre%" -T "PERFORMER=%albuminterpret%" -T "COMPOSER=%composer%" %haslyrics%--tag-from-file=LYRICS="%lyricsfile%"%haslyrics% -T "ALBUMARTIST=%albumartist%" -T "DISCNUMBER=%cdnumber%" -T "TOTALDISCS=%totalcds%" -T "TOTALTRACKS=%numtracks%" -T "COMMENT=%comment%" %source% -o %dest%

TOC of the extracted CD Track | Start | Length | Start sector | End sector
--1 | 0:00.00 | 6:43.63 | 0 | 30287 2 | 6:43.63 | 5:17.49 | 30288 | 54111 3 | 12:01.37 | 8:39.06 | 54112 | 93042 4 | 20:40.43 | 8:20.28 | 93043 | 130570 5 | 29:00.71 | 5:50.65 | 130571 | 156885 6 | 34:51.61 | 6:19.07 | 156886 | 185317 7 | 41:10.68 | 3:17.22 | 185318 | 200114

Track 1 Filename I:\DL\Franz Liszt - Annees de Pelerinage CD3 (2011) [FLAC]\01 - Troisieme annee - I. Angelus! Priere aux anges gardiens.wav Pre-gap length 0:00:02.00 Peak level 50.9 %
Extraction speed 4.7 X
Track quality 100.0 %
Test CRC 8E9CD97A
Copy CRC 8E9CD97A
Accurately ripped (confidence 1) [0AB5014C] (AR v1)
Copy OK

Track 2 Filename I:\DL\Franz Liszt - Annees de Pelerinage CD3 (2011) [FLAC]\02 - Troisieme annee - II. Aux cypres de la Villa d'Este. Threnodie (I).wav Peak level 57.1 %
Extraction speed 5.3 X
Track quality 100.0 %
Test CRC 581F3FFA
Copy CRC 581F3FFA
Accurately ripped (confidence 1) [DBA6707C] (AR v1)
Copy OK

Track 3 Filename I:\DL\Franz Liszt - Annees de Pelerinage CD3 (2011) [FLAC]\03 - Troisieme annee - III. Aux cypres de la Villa d'Este. Threnodie (II).wav Peak level 71.9 %
Extraction speed 6.1 X
Track quality 100.0 %
Test CRC 31A8E9ED
Copy CRC 31A8E9ED
Accurately ripped (confidence 1) [CF3F220F] (AR v1)
Copy OK

Track 4 Filename I:\DL\Franz Liszt - Annees de Pelerinage CD3 (2011) [FLAC]\04 - Troisieme annee - IV. Les jeux d'eau de la Villa d'Este.wav Peak level 65.3 %
Extraction speed 6.8 X
Track quality 100.0 %
Test CRC 8F05BED0
Copy CRC 8F05BED0
Accurately ripped (confidence 1) [328E57B8] (AR v1)
Copy OK

Track 5 Filename I:\DL\Franz Liszt - Annees de Pelerinage CD3 (2011) [FLAC]\05 - Troisieme annee - V. Sunt lacrymae rerum. En mode hongrois.wav Peak level 87.3 %
Extraction speed 7.0 X
Track quality 100.0 %
Test CRC FFFCFEF9
Copy CRC FFFCFEF9
Accurately ripped (confidence 1) [4F061F61] (AR v1)
Copy OK

Track 6 Filename I:\DL\Franz Liszt - Annees de Pelerinage CD3 (2011) [FLAC]\06 - Troisieme annee - VI. Marche funebre. En memoire de Maximilien I.wav Peak level 73.4 %
Extraction speed 6.9 X
Track quality 99.9 %
Test CRC 3B0958E4
Copy CRC 3B0958E4
Accurately ripped (confidence 1) [60ADF1C1] (AR v1)
Copy OK

Track 7 Filename I:\DL\Franz Liszt - Annees de Pelerinage CD3 (2011) [FLAC]\07 - Troisieme annee - VII. Sursum corda. Erhebet eure Herzen.wav Peak level 85.5 %
Extraction speed 7.2 X
Track quality 100.0 %
Test CRC 6B097364
Copy CRC 6B097364
Accurately ripped (confidence 1) [37BD4744] (AR v1)
Copy OK

All tracks accurately ripped

No errors occurred

End of status report

- CUETools DB Plugin V2.1.3

[CTDB TOCID: cQFOoBhhQjv_uUnkhJ9b1US.F98-] found, Submit result: cQFOoBhhQjv_uUnkhJ9b1US.F98- has been confirmed
[2b9ab97e] (2/2) Accurately ripped

==== Log checksum 1FBCBCE27F2E1592352A1E77E43AC7BB649C4B1E7D61F18F92A74088EAB616B4 ====

Franz Liszt - Annees de Pelerinage - Bertrand Chamayou (2011) [3CD Set] {Naive}


DOWNLOAD LINKS
Buy Premium From My Links To Get Resumable Support & Max Speed & To Support Me

Rapidgator.net:
http://rapidgator.net/file/bbed55ef1de6e92a0a33eaf4e0c8d1bd/chext.lisztpelerinagechamayouARTWORK.part1.rar.html
http://rapidgator.net/file/2ff800ad2c7c7498e1e79479375ea4d3/chext.lisztpelerinagechamayouARTWORK.part2.rar.html
http://rapidgator.net/file/82850c9c57636c7295ec2b77e3b08e52/chext.lisztpelerinagechamayouCD1.rar.html
http://rapidgator.net/file/da6380aad2e4946b5cb5bbe530d8f37b/chext.lisztpelerinagechamayouCD1MP.rar.html
http://rapidgator.net/file/bce9722596cc0a54f4bb09b64782a7c4/chext.lisztpelerinagechamayouCD2.rar.html
http://rapidgator.net/file/acdb65dcd003326c19e3e4e4454c97bd/chext.lisztpelerinagechamayouCD2MP.rar.html
http://rapidgator.net/file/48415b7f405db5c468dbb524692f5e0c/chext.lisztpelerinagechamayouCD3.rar.html
http://rapidgator.net/file/93dcdee050ba1a9f8a618b36a57b4c64/chext.lisztpelerinagechamayouCD3MP.rar.html

Uploaded.net:
http://uploaded.net/file/0rtrdrq1/chext.lisztpelerinagechamayouARTWORK.part1.rar
http://uploaded.net/file/wm65l0uf/chext.lisztpelerinagechamayouARTWORK.part2.rar
http://uploaded.net/file/cis4g5q3/chext.lisztpelerinagechamayouCD1.rar
http://uploaded.net/file/texrpmuh/chext.lisztpelerinagechamayouCD1MP.rar
http://uploaded.net/file/wtnjqzdc/chext.lisztpelerinagechamayouCD2.rar
http://uploaded.net/file/ttk4ymvq/chext.lisztpelerinagechamayouCD2MP.rar
http://uploaded.net/file/jyrq6rme/chext.lisztpelerinagechamayouCD3.rar
http://uploaded.net/file/bpijhg9p/chext.lisztpelerinagechamayouCD3MP.rar

OBoom.com:
https://www.oboom.com/U4F4W5U3/chext.lisztpelerinagechamayouARTWORK.part1.rar
https://www.oboom.com/AFHMGRRS/chext.lisztpelerinagechamayouARTWORK.part2.rar
https://www.oboom.com/AOGLLJN7/chext.lisztpelerinagechamayouCD1.rar
https://www.oboom.com/ZQTZ8VRD/chext.lisztpelerinagechamayouCD1MP.rar
https://www.oboom.com/NR7OZKO1/chext.lisztpelerinagechamayouCD2.rar
https://www.oboom.com/5A174ND1/chext.lisztpelerinagechamayouCD2MP.rar
https://www.oboom.com/W4HAICEJ/chext.lisztpelerinagechamayouCD3.rar
https://www.oboom.com/CFFLE2MN/chext.lisztpelerinagechamayouCD3MP.rar

Links are Interchangeable - No Password - Single Extraction
Direct Download

Tags: Annees, Pelerinage, Bertrand, Chamayou

Franz Liszt - Annees de Pelerinage - Bertrand Chamayou (2011) [3CD Set] {Naive} Download via Hotfile Rapidshare Fileserve Megaupload & FileSonic, Franz Liszt - Annees de Pelerinage - Bertrand Chamayou (2011) [3CD Set] {Naive} free torrent downloads included crack, serial, keygen.Franz Liszt - Annees de Pelerinage - Bertrand Chamayou (2011) [3CD Set] {Naive} Fast Download via Rapidshare Hotfile Fileserve Filesonic Megaupload, Franz Liszt - Annees de Pelerinage - Bertrand Chamayou (2011) [3CD Set] {Naive} Torrents and Emule Download or anything related.
Leave a Comment
Your Name:
E-Mail:
Add Comments:

Enter Code: