Anne Murray - Something To Talk About (1986) [1990, Reissue]

Download Now

Anne Murray - Something To Talk About (1986) [1990, Reissue]

Anne Murray - Something To Talk About (1986) [1990, Reissue]
Pop/Rock, Adult Contemporary, Vocal | EAC Rip | FLAC, Img+CUE + LOG + Full Artwork-600dpi (PNG) | 39:01 Min | 294,37 Mb
Label: Capitol Records, Inc. (USA) | Released: 1990, January, 22

"
Something to Talk About is a 22nd studio album by Canadian Country artist Anne Murray. It was released by Capitol Records in 1986. The album peaked at #2 for several weeks on the Billboard Top Country Albums chart - Anne's highest position. The disc was certified Gold by the RIAA.
"

Anne Murray - Something To Talk About (1986) [1990, Reissue]

Anne Murray - Something To Talk About (1986) [1990, Reissue]


Release of the album: [LP Capitol Records, Cat.# SJ-12466, USA]
Release of this CD: 1990, January, 22 [CD Capitol Records, Inc. (USA), Cat.# CDP 7 46197 2 / UPC: 077774619721]
℗© 1987 Capitol Records, Inc.
Manufactured by Capitol Records, Inc.,
A Subsidiary of Capitol-EMI Music, Inc.

Note: Digital Mastering, AAD

Producers - David Foster (tracks: 1), Jack White (tracks: 2, 3, 4, 5, 6, 10), Keith Diamond (tracks: 7, 8, 9)

Tracklist:

01. Now And Forever (You And Me) (04:18)
(David Foster, Jim Vallance, Randy Goodrum)
02. Who's Leaving Who (03:43)
(Jack White, Mark Spiro)
03. My Life's A Dance (04:25)
(Jack White, Mark Spiro)
04. Call Us Fools (03:54)
(Alan Roy Scott, Roy Freeland, Jill Colucci)
05. On And On (04:06)
(Jerry Buckner)
06. Heartaches (03:56)
(C. F. Turner)
07. Reach For Me (03:56)
(R. Bruno, E. Schwartz)
08. When You're Gone (04:09)
(Keith Diamond, Cliff Dawson)
09. You Never Know (03:12)
(Gary Nicholson, Amy Sky)
10. Gotcha (03:23)
(Jack White, Mark Spiro, Ed Arkin)

Exact Audio Copy V1.0 beta 3 from 29. August 2011

EAC extraction logfile from 9. October 2015, 13:28

Anne Murray / Something To Talk About

Used drive : PIONEER BD-RW BDR-208D Adapter: 1 ID: 0

Read mode : Secure
Utilize accurate stream : Yes
Defeat audio cache : Yes
Make use of C2 pointers : No

Read offset correction

: 667
Overread into Lead-In and Lead-Out : No
Fill up missing offset samples with silence : Yes
Delete leading and trailing silent blocks : No
Null samples used in CRC calculations : Yes
Used interface
: Native Win32 interface for Win NT & 2000

Used output format : Internal WAV Routines
Sample format : 44.100 Hz; 16 Bit; Stereo

TOC of the extracted CD Track | Start | Length | Start sector | End sector
--1 | 0:00.00 | 4:17.47 | 0 | 19321 2 | 4:17.47 | 3:42.65 | 19322 | 36036 3 | 8:00.37 | 4:24.53 | 36037 | 55889 4 | 12:25.15 | 3:54.07 | 55890 | 73446 5 | 16:19.22 | 4:06.20 | 73447 | 91916 6 | 20:25.42 | 3:55.50 | 91917 | 109591 7 | 24:21.17 | 3:56.05 | 109592 | 127296 8 | 28:17.22 | 4:09.05 | 127297 | 145976 9 | 32:26.27 | 3:12.28 | 145977 | 160404
10 | 35:38.55 | 3:22.45 | 160405 | 175599

Range status and errors

Selected range Filename D:\BlondStyle\Anne Murray - Something To Talk About.wav Peak level 81.6 %
Extraction speed 6.5 X
Range quality 100.0 %
Test CRC 48C6D812
Copy CRC 48C6D812
Copy OK

No errors occurred


AccurateRip summary

Track 1 accurately ripped (confidence 1) [9629D2E2] (AR v2)
Track 2 accurately ripped (confidence 1) [C101462E] (AR v2)
Track 3 accurately ripped (confidence 1) [4E385258] (AR v2)
Track 4 accurately ripped (confidence 1) [4DFB0750] (AR v2)
Track 5 accurately ripped (confidence 1) [89CB690A] (AR v2)
Track 6 accurately ripped (confidence 1) [2D8F9A52] (AR v2)
Track 7 accurately ripped (confidence 1) [F638F6A6] (AR v2)
Track 8 accurately ripped (confidence 1) [F50329E1] (AR v2)
Track 9 accurately ripped (confidence 1) [7518DE28] (AR v2)
Track 10 accurately ripped (confidence 1) [08E523D4] (AR v2)

All tracks accurately ripped

End of status report

- CUETools DB Plugin V2.1.3

[CTDB TOCID: otcL0QvFEEV9ltxx4IeE4g0QO6Y-] disk not present in database, Submit result: otcL0QvFEEV9ltxx4IeE4g0QO6Y- has been uploaded

==== Log checksum 07549C4EBAF01A1A54805B0AAA7DBF09FA49B2B25296795466A79ECFA9729DFB ====

foobar2000 1.3.7 / Dynamic Range Meter 1.1.1
log date: 2015-10-09 13:31:42

Analyzed: Anne Murray / Something To Talk About

DR Peak RMS Duration Track

DR13 -3.57 dB -18.87 dB 4:18 01-Now And Forever (You And Me)
DR14 -2.05 dB -18.53 dB 3:43 02-Who's Leaving Who
DR13 -3.55 dB -20.48 dB 4:25 03-My Life's A Dance
DR13 -4.16 dB -19.12 dB 3:54 04-Call Us Fools
DR12 -4.17 dB -19.58 dB 4:06 05-On And On
DR15 -1.76 dB -18.90 dB 3:56 06-Heartaches
DR13 -3.27 dB -19.12 dB 3:56 07-Reach For Me
DR13 -4.41 dB -19.88 dB 4:09 08-When You're Gone
DR12 -5.11 dB -19.78 dB 3:12 09-You Never Know
DR13 -3.08 dB -18.67 dB 3:23 10-Gotcha

Number of tracks: 10
Official DR value: DR13

Samplerate: 44100 Hz
Channels: 2
Bits per sample: 16
Bitrate: 1411 kbps
Codec: PCM



password: BlondStyle

DOWNLOAD LINKS
Buy Premium From My Links To Get Resumable Support & Max Speed & To Support Me


Links are Interchangeable - No Password - Single Extraction
Direct Download

Tags: Murray, Something, Reissue

Anne Murray - Something To Talk About (1986) [1990, Reissue] Download via Hotfile Rapidshare Fileserve Megaupload & FileSonic, Anne Murray - Something To Talk About (1986) [1990, Reissue] free torrent downloads included crack, serial, keygen.Anne Murray - Something To Talk About (1986) [1990, Reissue] Fast Download via Rapidshare Hotfile Fileserve Filesonic Megaupload, Anne Murray - Something To Talk About (1986) [1990, Reissue] Torrents and Emule Download or anything related.
Leave a Comment
Your Name:
E-Mail:
Add Comments:

Enter Code: