Bijan Chemirani with Ross Daly - Gulistan (2002) {L'Empreinte Digitale}

Download Now


Bijan Chemirani with Ross Daly - Gulistan (2002) {L'Empreinte Digitale}
Bijan Chemirani with Ross Daly - Gulistan (2002) {L'Empreinte Digitale}
EAC rip (secure mode) | FLAC (tracks)+CUE+LOG -> 398 Mb | MP3 @320 -> 147 Mb
Full Artwork @ 600 dpi (jpg) -> 31 Mb | 5% repair rar
© 2002 L'Empreinte Digitale / Numen | ED 13139
World Music / Neo-Traditional / Traditional Middle Eastern Folk

"Bijan Chemirani is interested in mythical musical spaces. On Gulistan, Chemirani explores a place where Greek, Persian and Azerbaijani music meet. A gulistan is a rose garden, the classic metaphor for the source of inspiration for poets and musicians. The album is full of spirited tempo and fiery instrumental conversations between fiddles and percussion. These are Middle Eastern fiddles, kamanchehs, kemences and rebecs. In the Persian musical tradition, the kamancheh is thought to be the world's original fiddle."

Bijan Chemirani with Ross Daly - Gulistan (2002) {L'Empreinte Digitale}


Personnel:
Bijan Chemirani: Zarb, Daf, Riq, Tambourine, Darbouka, Udu, Cajon, Kementche
Ross Daly: Lyra, Laouto, Saz, Robab
Socrates Sinopoulos: Kementche, Laouto
Tigran Sarkissian: Duduk
Djamchid Chemirani: Zarb
Henri Agnel: Cetera, Oud, Rebec
Keyvan Chemirani - Zarb, Daf, Udu

tracklist:
01 - Liqa
02 - Makrinitsa
03 - Taksim Laouto
04 - Socratako
05 - Taksim Robab
06 - Naom Gaffani
07 - Taksim Duduk
08 - Zeimbeki
09 - Tarigh
10 - Gardesh
11 - Syrto
12 - Taksim Cistre
13 - Sento d'amor la fiamma
14 - Gulistan

Exact Audio Copy V1.0 beta 1 from 15. November 2010

EAC extraction logfile from 20. March 2011, 19:52

Bijan Chemirani / Gulistan

Used drive : Optiarc DVD RW AD-7240S Adapter: 3 ID: 1

Read mode : Secure
Utilize accurate stream : Yes
Defeat audio cache : Yes
Make use of C2 pointers : No

Read offset correction

: 48
Overread into Lead-In and Lead-Out : No
Fill up missing offset samples with silence : Yes
Delete leading and trailing silent blocks : No
Null samples used in CRC calculations : Yes
Used interface
: Installed external ASPI interface
Gap handling
: Appended to previous track

Used output format : User Defined Encoder
Selected bitrate : 896 kBit/s
Quality : High
Add ID3 tag : No
Command line compressor : C:\Program Files\Exact Audio Copy\Flac\flac.exe
Additional command line options : -8 -V -T "ARTIST=%a" -T "TITLE=%t" -T "ALBUM=%g" -T "DATE=%y" -T "TRACKNUMBER=%n" -T "TOTALTRACKS=%x" -T "GENRE=%m" -T "ALBUMARTIST=%v" -T "ALBUM ARTIST=%v" -T "COMMENT=EAC Secure Mode, Test & Copy, AccurateRip, FLAC -8" %s

TOC of the extracted CD Track | Start | Length | Start sector | End sector
--1 | 0:00.00 | 5:09.46 | 0 | 23220 2 | 5:09.46 | 8:00.30 | 23221 | 59250 3 | 13:10.01 | 1:23.16 | 59251 | 65491 4 | 14:33.17 | 3:49.13 | 65492 | 82679 5 | 18:22.30 | 3:32.51 | 82680 | 98630 6 | 21:55.06 | 5:52.11 | 98631 | 125041 7 | 27:47.17 | 1:23.32 | 125042 | 131298 8 | 29:10.49 | 5:21.67 | 131299 | 155440 9 | 34:32.41 | 6:04.40 | 155441 | 182780
10 | 40:37.06 | 3:50.13 | 182781 | 200043
11 | 44:27.19 | 8:14.46 | 200044 | 237139
12 | 52:41.65 | 1:47.11 | 237140 | 245175
13 | 54:29.01 | 3:38.18 | 245176 | 261543
14 | 58:07.19 | 4:11.24 | 261544 | 280392

Track 1 Filename F:\AneL\MY RIPS\01 - Liqa.wav Pre-gap length 0:00:02.00 Peak level 98.8 %
Extraction speed 2.5 X
Track quality 100.0 %
Test CRC 0A7D0F9E
Copy CRC 0A7D0F9E
Accurately ripped (confidence 2) [4971CD66]
Copy OK

Track 2 Filename F:\AneL\MY RIPS\02 - Makrinitsa.wav Pre-gap length 0:00:03.50 Peak level 98.8 %
Extraction speed 3.1 X
Track quality 100.0 %
Test CRC E2177249
Copy CRC E2177249
Accurately ripped (confidence 2) [74B49696]
Copy OK

Track 3 Filename F:\AneL\MY RIPS\03 - Taksim Laouto.wav Pre-gap length 0:00:03.50 Peak level 88.9 %
Extraction speed 2.4 X
Track quality 100.0 %
Test CRC 78C53C9C
Copy CRC 78C53C9C
Accurately ripped (confidence 2) [3404C0B0]
Copy OK

Track 4 Filename F:\AneL\MY RIPS\04 - Socratako.wav Peak level 98.8 %
Extraction speed 3.2 X
Track quality 100.0 %
Test CRC B1C9459C
Copy CRC B1C9459C
Accurately ripped (confidence 2) [5CA8FBF5]
Copy OK

Track 5 Filename F:\AneL\MY RIPS\05 - Taksim Robab.wav Pre-gap length 0:00:03.50 Peak level 98.8 %
Extraction speed 3.4 X
Track quality 100.0 %
Test CRC A9A8838E
Copy CRC A9A8838E
Accurately ripped (confidence 2) [FD4F6720]
Copy OK

Track 6 Filename F:\AneL\MY RIPS\06 - Naom Gaffani.wav Peak level 98.8 %
Extraction speed 3.8 X
Track quality 100.0 %
Test CRC 991CAFEF
Copy CRC 991CAFEF
Accurately ripped (confidence 2) [F1DE1274]
Copy OK

Track 7 Filename F:\AneL\MY RIPS\07 - Taksim Duduk.wav Pre-gap length 0:00:01.50 Peak level 59.5 %
Extraction speed 3.0 X
Track quality 100.0 %
Test CRC 2B5EB97F
Copy CRC 2B5EB97F
Accurately ripped (confidence 2) [79D60166]
Copy OK

Track 8 Filename F:\AneL\MY RIPS\08 - Zeimbeki.wav Peak level 98.8 %
Extraction speed 4.1 X
Track quality 100.0 %
Test CRC FB87F9A1
Copy CRC FB87F9A1
Accurately ripped (confidence 2) 5CCCAB4
Copy OK

Track 9 Filename F:\AneL\MY RIPS\09 - Tarigh.wav Pre-gap length 0:00:03.50 Peak level 98.8 %
Extraction speed 4.3 X
Track quality 100.0 %
Test CRC 33B9C0A7
Copy CRC 33B9C0A7
Accurately ripped (confidence 2) [7CA2F469]
Copy OK

Track 10 Filename F:\AneL\MY RIPS\10 - Gardesh.wav Pre-gap length 0:00:01.50 Peak level 98.8 %
Extraction speed 4.4 X
Track quality 100.0 %
Test CRC A248151A
Copy CRC A248151A
Accurately ripped (confidence 2) [E064589A]
Copy OK

Track 11 Filename F:\AneL\MY RIPS\11 - Syrto.wav Pre-gap length 0:00:03.50 Peak level 98.8 %
Extraction speed 4.9 X
Track quality 100.0 %
Test CRC D57C4C5E
Copy CRC D57C4C5E
Accurately ripped (confidence 2) [36F1D843]
Copy OK

Track 12 Filename F:\AneL\MY RIPS\12 - Taksim Cistre.wav Pre-gap length 0:00:03.50 Peak level 98.8 %
Extraction speed 3.9 X
Track quality 100.0 %
Test CRC 558ABDF2
Copy CRC 558ABDF2
Accurately ripped (confidence 2) [30B8E259]
Copy OK

Track 13 Filename F:\AneL\MY RIPS\13 - Sento d'amor la fiamma.wav Peak level 98.8 %
Extraction speed 4.8 X
Track quality 100.0 %
Test CRC 7023BBF3
Copy CRC 7023BBF3
Accurately ripped (confidence 2) [4C9EF737]
Copy OK

Track 14 Filename F:\AneL\MY RIPS\14 - Gulistan.wav Pre-gap length 0:00:03.50 Peak level 98.8 %
Extraction speed 5.0 X
Track quality 100.0 %
Test CRC 89E065AD
Copy CRC 89E065AD
Accurately ripped (confidence 2) [672D2EA3]
Copy OK

All tracks accurately ripped

No errors occurred

End of status report

==== Log checksum FB366E8E94C9FB4D7E2A14527D9995027A1D552F9E653CAED471F65CEE08F28D ====

Bijan Chemirani with Ross Daly - Gulistan (2002) {L'Empreinte Digitale}

Bijan Chemirani with Ross Daly - Gulistan (2002) {L'Empreinte Digitale}


DOWNLOAD LINKS
Buy Premium From My Links To Get Resumable Support & Max Speed & To Support Me


Links are Interchangeable - No Password - Single Extraction
Direct Download

Tags: Chemirani, Gulistan, Empreinte, Digitale

Bijan Chemirani with Ross Daly - Gulistan (2002) {L'Empreinte Digitale} Download via Hotfile Rapidshare Fileserve Megaupload & FileSonic, Bijan Chemirani with Ross Daly - Gulistan (2002) {L'Empreinte Digitale} free torrent downloads included crack, serial, keygen.Bijan Chemirani with Ross Daly - Gulistan (2002) {L'Empreinte Digitale} Fast Download via Rapidshare Hotfile Fileserve Filesonic Megaupload, Bijan Chemirani with Ross Daly - Gulistan (2002) {L'Empreinte Digitale} Torrents and Emule Download or anything related.
Leave a Comment
Your Name:
E-Mail:
Add Comments:

Enter Code: