Nightwish - Rock in Rio 2015 [HDTV, 1080p]

Download Now

Nightwish - Rock in Rio 2015 [HDTV, 1080p]

Nightwish - Rock in Rio 2015
MP4, MPEG4 Video (H264) 1920x1080 29.97fps | AAC stereo 192Kbps
Heavy Metal / Symphonic Metal | 00:56:28 | ~ 7.57 Gb

~ Nightwish performing on September 25, 2015 at Rock In Rio Music Festival ~




Tracklist:

intro Roll Tide (Hans Zimmer song)
Shudder Before the Beautiful
Yours Is an Empty Hope
Wishmaster
My Walden
Weak Fantasy (Preceded by a Dawkins' narration)
Stargazers
The Islander (with Tony Kakko, First half performed solo by Marco)
Last Ride of the Day (with Tony Kakko)
Ghost Love Score The Greatest Show on Earth (Chapter IV: The Understanding; Chapter V: Sea-Worn Driftwood)

General
Complete name : G:\UP\Mix\Nightwish - Rock in Rio 2015\Nightwish - Rock in Rio 2015.mp4
Format
: MPEG-4
Format profile : Base Media
Codec ID
: isom
File size
: 7.18 GiB
Duration
: 56mn 28s
Overall bit rate mode : Variable
Overall bit rate : 18.2 Mbps

Video
ID : 2
Format
: AVC
Format/Info
: Advanced Video Codec
Format profile : [email protected]
Format settings, CABAC : No
Format settings, ReFrames : 1 frame
Format settings, GOP : M=1, N=60
Codec ID
: avc1
Codec ID/Info : Advanced Video Coding
Duration
: 56mn 28s
Duration_FirstFrame

: 1ms
Bit rate
: 18.0 Mbps
Width
: 1 920 pixels
Height
: 1 080 pixels
Display aspect ratio : 16:9
Frame rate mode : Constant
Frame rate
: 29.970 fps
Color space
: YUV
Chroma subsampling

: 4:2:0
Bit depth
: 8 bits
Scan type
: Progressive
Bits/(Pixel*Frame)

: 0.290
Stream size
: 7.10 GiB (99%)
Language
: English

Audio
ID : 1
Format
: AAC
Format/Info
: Advanced Audio Codec
Format profile : LC
Codec ID
: 40
Duration
: 56mn 28s
Bit rate mode : Variable
Bit rate
: 192 Kbps
Channel(s)
: 2 channels
Channel positions: Front: L R
Sampling rate : 48.0 KHz
Compression mode : Lossy
Stream size
: 76.5 MiB (1%)
Language
: English

Nightwish - Rock in Rio 2015 [HDTV, 1080p]

Nightwish - Rock in Rio 2015 [HDTV, 1080p]

Nightwish - Rock in Rio 2015 [HDTV, 1080p]

Nightwish - Rock in Rio 2015 [HDTV, 1080p]

Nightwish - Rock in Rio 2015 [HDTV, 1080p]

Nightwish - Rock in Rio 2015 [HDTV, 1080p]

Nightwish - Rock in Rio 2015 [HDTV, 1080p]

DOWNLOAD LINKS
Buy Premium From My Links To Get Resumable Support & Max Speed & To Support Me

Rapidgator.net:
http://rapidgator.net/file/ab7c244c3c36e7443e597a9c90c065e4/wdhx5.N.R.i.R.2015.HDTV.1080p.part01.rar.html
http://rapidgator.net/file/8e18c29e2b0518035f72d8f12c0cef53/wdhx5.N.R.i.R.2015.HDTV.1080p.part02.rar.html
http://rapidgator.net/file/424c5c40d7331518a8c5e9c7146d91a8/wdhx5.N.R.i.R.2015.HDTV.1080p.part03.rar.html
http://rapidgator.net/file/07ae7493d1b28efd9bdb294b524c24c3/wdhx5.N.R.i.R.2015.HDTV.1080p.part04.rar.html
http://rapidgator.net/file/05fd2e52535f38d2f8b0e50041e4e273/wdhx5.N.R.i.R.2015.HDTV.1080p.part05.rar.html
http://rapidgator.net/file/20028d1cee6af5d3cc0282cc52c0c19a/wdhx5.N.R.i.R.2015.HDTV.1080p.part06.rar.html
http://rapidgator.net/file/aa563f2592008624519c246c318a928b/wdhx5.N.R.i.R.2015.HDTV.1080p.part07.rar.html
http://rapidgator.net/file/ea5e88d353a009a15d52d309f83e8b68/wdhx5.N.R.i.R.2015.HDTV.1080p.part08.rar.html
http://rapidgator.net/file/627f9c4108e6089a089f04ce65633c17/wdhx5.N.R.i.R.2015.HDTV.1080p.part09.rar.html
http://rapidgator.net/file/81cd36e393df35f0667350e0e52d6a14/wdhx5.N.R.i.R.2015.HDTV.1080p.part10.rar.html

Uploaded.net:
http://uploaded.net/file/1u1g76bz/wdhx5.N.R.i.R.2015.HDTV.1080p.part01.rar
http://uploaded.net/file/zse7knoc/wdhx5.N.R.i.R.2015.HDTV.1080p.part02.rar
http://uploaded.net/file/3sj90knb/wdhx5.N.R.i.R.2015.HDTV.1080p.part03.rar
http://uploaded.net/file/w632e0j6/wdhx5.N.R.i.R.2015.HDTV.1080p.part04.rar
http://uploaded.net/file/u7xr4b00/wdhx5.N.R.i.R.2015.HDTV.1080p.part05.rar
http://uploaded.net/file/yucon2wm/wdhx5.N.R.i.R.2015.HDTV.1080p.part06.rar
http://uploaded.net/file/jdmn7dr9/wdhx5.N.R.i.R.2015.HDTV.1080p.part07.rar
http://uploaded.net/file/bkhuqs0f/wdhx5.N.R.i.R.2015.HDTV.1080p.part08.rar
http://uploaded.net/file/qzgtvvbi/wdhx5.N.R.i.R.2015.HDTV.1080p.part09.rar
http://uploaded.net/file/fbfk3q0u/wdhx5.N.R.i.R.2015.HDTV.1080p.part10.rar

OBoom.com:
https://www.oboom.com/EJLEFTEW/wdhx5.N.R.i.R.2015.HDTV.1080p.part01.rar
https://www.oboom.com/2GX4B36I/wdhx5.N.R.i.R.2015.HDTV.1080p.part02.rar
https://www.oboom.com/ZWB0ZC6D/wdhx5.N.R.i.R.2015.HDTV.1080p.part03.rar
https://www.oboom.com/X3772LD3/wdhx5.N.R.i.R.2015.HDTV.1080p.part04.rar
https://www.oboom.com/WLWCUQJL/wdhx5.N.R.i.R.2015.HDTV.1080p.part05.rar
https://www.oboom.com/OIT3IW82/wdhx5.N.R.i.R.2015.HDTV.1080p.part06.rar
https://www.oboom.com/6L1LMKY6/wdhx5.N.R.i.R.2015.HDTV.1080p.part07.rar
https://www.oboom.com/V3NSBXWI/wdhx5.N.R.i.R.2015.HDTV.1080p.part08.rar
https://www.oboom.com/B0ERXLQY/wdhx5.N.R.i.R.2015.HDTV.1080p.part09.rar
https://www.oboom.com/ACYI4Y24/wdhx5.N.R.i.R.2015.HDTV.1080p.part10.rar

Links are Interchangeable - No Password - Single Extraction
Direct Download

Tags: Nightwish

Nightwish - Rock in Rio 2015 [HDTV, 1080p] Download via Hotfile Rapidshare Fileserve Megaupload & FileSonic, Nightwish - Rock in Rio 2015 [HDTV, 1080p] free torrent downloads included crack, serial, keygen.Nightwish - Rock in Rio 2015 [HDTV, 1080p] Fast Download via Rapidshare Hotfile Fileserve Filesonic Megaupload, Nightwish - Rock in Rio 2015 [HDTV, 1080p] Torrents and Emule Download or anything related.
Leave a Comment
Your Name:
E-Mail:
Add Comments:

Enter Code: