Nor Dar & Lakshmi Shankar - Ampel'a (2000) {Libra}

Download Now

Nor Dar & Lakshmi Shankar - Ampel'a (2000) {Libra}

Nor Dar & Lakshmi Shankar - Ampel'a (2000) {Libra}
EAC 1.0b3 | FLAC tracks level 8 | Cue+Log+M3U | Full Scans 300dpi | 357MB + 5% Recovery
Genre: Ethnic Fusion, World Music, Armenian

"The trio of Nor Dar comes from Armenia. Right from their first album "Opus of the Lizard" (winner of the Armenian Music Awards 1998) the group showed the desire to give a broader experimental spirit of the legacy of Komitas, the father of Armenian music. The success surely comes from the unquestionable ability of the group's members at the time of using traditional instruments. And combined with the classical education and the general preoccupation with jazz, it led to a more complex musical alloy, which is obviously intended to pass the traditional and classical music of their country to a wider audience, opening new avenues of evolution."

Track List
01. My heart is in the mountains
02. My mother's eyes (part 1)
03. A portrait of you
04. Mashots avenue
05. Flower of Garnat
06. Ampel'a
07. The village in the valley
08. Mystery doors
09. My mothers eyes (part 2)

musicians
Lakshmi Shankar - vocals

Kora Michaelian - piano, keyboards, vocals
Tigran Sarkissian - shvi, duduk
Orestis Moustidis - drums, duduk, additional percussion

Marc Johnson - acoustic bass, double bass
Shyam Kane - tabla
Ramesh Mishra - sarangi

Dimitris Roumeliotis - sitar
Stelios Yabannas - electric bass
Costas Zaridakis - bouzouki

Nairi String Quartet :
I Violin: Zeki Soulkouki
II Violin: Irina Avetikova
Viola: Samuel Gevorkian
Cello: Nikogayos Vardanian
Contrabass: Grant Sargissian

Produced by Libra Music

Exact Audio Copy V1.0 beta 3 from 29. August 2011

EAC extraction logfile from 11. December 2011, 19:14

Nor Dar & Lakshmi Shankar / Ampel'a

Used drive : Optiarc DVD RW AD-7200A Adapter: 2 ID: 0

Read mode : Secure
Utilize accurate stream : Yes
Defeat audio cache : Yes
Make use of C2 pointers : No

Read offset correction

: 48
Overread into Lead-In and Lead-Out : No
Fill up missing offset samples with silence : Yes
Delete leading and trailing silent blocks : No
Null samples used in CRC calculations : Yes
Used interface
: Installed external ASPI interface
Gap handling
: Appended to previous track

Used output format : User Defined Encoder
Selected bitrate : 896 kBit/s
Quality : High
Add ID3 tag : No
Command line compressor : C:\Program Files (x86)\Exact Audio Copy\Flac\flac.exe
Additional command line options : -8 -V -T "ARTIST=%artist%" -T "TITLE=%title%" -T "ALBUM=%albumtitle%" -T "DATE=%year%" -T "TRACKNUMBER=%tracknr%" -T "TOTALTRACKS=%numtracks%" -T "GENRE=%genre%" -T "ALBUMARTIST=%albumartist%" -T "ALBUM ARTIST=%albumartist%" -T "COMMENT=EAC Secure Mode, Test & Copy, AccurateRip, FLAC -8" %source%

TOC of the extracted CD Track | Start | Length | Start sector | End sector
--1 | 0:00.00 | 7:31.64 | 0 | 33888 2 | 7:31.64 | 5:40.17 | 33889 | 59405 3 | 13:12.06 | 5:06.13 | 59406 | 82368 4 | 18:18.19 | 5:48.22 | 82369 | 108490 5 | 24:06.41 | 3:27.48 | 108491 | 124063 6 | 27:34.14 | 4:31.25 | 124064 | 144413 7 | 32:05.39 | 3:47.72 | 144414 | 161510 8 | 35:53.36 | 6:47.20 | 161511 | 192055 9 | 42:40.56 | 5:38.02 | 192056 | 217407

Track 1 Filename D:\Rips\01 - My Heart is in the Mountains.wav Pre-gap length 0:00:02.00 Peak level 99.5 %
Extraction speed 2.4 X
Track quality 99.9 %
Test CRC B406DD9C
Copy CRC B406DD9C
Track not present in AccurateRip database
Copy OK

Track 2 Filename D:\Rips\02 - My Mothers Eyes (part 1).wav Pre-gap length 0:00:02.00 Peak level 95.5 %
Extraction speed 2.9 X
Track quality 100.0 %
Test CRC A4B75373
Copy CRC A4B75373
Track not present in AccurateRip database
Copy OK

Track 3 Filename D:\Rips\03 - A Portrait of you.wav Pre-gap length 0:00:02.00 Peak level 99.7 %
Extraction speed 3.2 X
Track quality 100.0 %
Test CRC F7BAA3F4
Copy CRC F7BAA3F4
Track not present in AccurateRip database
Copy OK

Track 4 Filename D:\Rips\04 - Mashots Avenue.wav Pre-gap length 0:00:02.00 Peak level 92.7 %
Extraction speed 3.5 X
Track quality 100.0 %
Test CRC 49A80B1D
Copy CRC 49A80B1D
Track not present in AccurateRip database
Copy OK

Track 5 Filename D:\Rips\05 - Flower of Garnat.wav Pre-gap length 0:00:02.00 Peak level 99.7 %
Extraction speed 3.5 X
Track quality 100.0 %
Test CRC C5025DDF
Copy CRC C5025DDF
Track not present in AccurateRip database
Copy OK

Track 6 Filename D:\Rips\06 - Ampel'a.wav Pre-gap length 0:00:02.00 Peak level 96.7 %
Extraction speed 3.8 X
Track quality 100.0 %
Test CRC 4627457B
Copy CRC 4627457B
Track not present in AccurateRip database
Copy OK

Track 7 Filename D:\Rips\07 - The Village in the Valley.wav Pre-gap length 0:00:02.00 Peak level 99.7 %
Extraction speed 3.8 X
Track quality 100.0 %
Test CRC C943330D
Copy CRC C943330D
Track not present in AccurateRip database
Copy OK

Track 8 Filename D:\Rips\08 - Mystery Doors.wav Pre-gap length 0:00:02.00 Peak level 95.2 %
Extraction speed 4.3 X
Track quality 100.0 %
Test CRC BBF473B2
Copy CRC BBF473B2
Track not present in AccurateRip database
Copy OK

Track 9 Filename D:\Rips\09 - My Mothers Eyes (part2).wav Pre-gap length 0:00:02.00 Peak level 81.9 %
Extraction speed 4.5 X
Track quality 100.0 %
Test CRC 17171D5F
Copy CRC 17171D5F
Track not present in AccurateRip database
Copy OK

None of the tracks are present in the AccurateRip database

No errors occurred

End of status report

==== Log checksum D698B800F34A3A721C5CD365921C07A8642199141E402DD1B50A21B4ACCA03B3 ====

Analyzed: Nor Dar & Lakshmi Shankar / Ampel'a

DR Peak RMS Duration Track

DR12 -0.04 dB -14.26 dB 7:32 01-My Heart is in the Mountains
DR11 -0.39 dB -15.55 dB 5:40 02-My Mothers Eyes (part 1)
DR15 -0.02 dB -18.23 dB 5:06 03-A Portrait of you
DR14 -0.65 dB -16.76 dB 5:48 04-Mashots Avenue
DR13 -0.03 dB -15.35 dB 3:28 05-Flower of Garnat
DR10 -0.29 dB -13.26 dB 4:31 06-Ampel'a
DR14 -0.02 dB -15.92 dB 3:48 07-The Village in the Valley
DR13 -0.43 dB -16.26 dB 6:47 08-Mystery Doors
DR12 -1.73 dB -16.61 dB 5:38 09-My Mothers Eyes (part2)

Number of tracks: 9
Official DR value: DR13

Samplerate: 44100 Hz
Channels: 2
Bits per sample: 16
Bitrate: 732 kbps
Codec: FLAC

Nor Dar & Lakshmi Shankar - Ampel'a (2000) {Libra}

Nor Dar & Lakshmi Shankar - Ampel'a (2000) {Libra}

Nor Dar & Lakshmi Shankar - Ampel'a (2000) {Libra}

Rip by tinuviel


DOWNLOAD LINKS
Buy Premium From My Links To Get Resumable Support & Max Speed & To Support Me


Links are Interchangeable - No Password - Single Extraction
Direct Download

Tags: Lakshmi, Shankar

Nor Dar & Lakshmi Shankar - Ampel'a (2000) {Libra} Download via Hotfile Rapidshare Fileserve Megaupload & FileSonic, Nor Dar & Lakshmi Shankar - Ampel'a (2000) {Libra} free torrent downloads included crack, serial, keygen.Nor Dar & Lakshmi Shankar - Ampel'a (2000) {Libra} Fast Download via Rapidshare Hotfile Fileserve Filesonic Megaupload, Nor Dar & Lakshmi Shankar - Ampel'a (2000) {Libra} Torrents and Emule Download or anything related.
Leave a Comment
Your Name:
E-Mail:
Add Comments:

Enter Code: