Bobby Hutcherson - Color Schemes (1985) {Landmark Records}

Download Now


Bobby Hutcherson - Color Schemes (1985) {Landmark Records}
Bobby Hutcherson - Color Schemes (1985) {Landmark Records}
EAC rip (secure mode) | FLAC (tracks)+CUE+LOG -> 241 Mb | MP3 @320 -> 103 Mb
Full Artwork @ 300 dpi (jpg) -> 15 Mb | 5% repair rar
© 1986 Landmark Records / GRP Records | LCD-1508-2
Jazz / Post Bop / Vibes

"A great title for this album from Bobby Hutcherson - given the way he commands such great tones from his work on the vibes! The album's a real gem from his Landmark Records years - that great back-to-basics point when Bobby was almost doing more by doing less - especially in a record with understated brilliance like this. The group's a warmly sensitive one - with Mulgrew Miller on piano, John Heard on bass, Airto on percussion, and Billy Higgins on drums - a perfect rhythmic accompaniment for Hutcherson's hip vibes. Titles include "Rosemary Rosemary", "Remember", "Never Let Me Go", "Recorda Me", "Bemsha Swing", and "Whisper Not"."

Personnel:
Bobby Hutcherson - vibes & marimba
Mulgrew Miller - piano
John Heard - bass
Billy Higgins - drums
Airto Moreira - percussion

tracklist:
01 - Recorda-me
02 - Bemsha Swing
03 - Rosemary, Rosemary
04 - Second-Hand Brown
05 - Whisper Not
06 - Color Scheme
07 - Remember
08 - Never Let Me Go

Exact Audio Copy V1.0 beta 3 from 29. August 2011

EAC extraction logfile from 3. September 2012, 5:06

Bobby Hutcherson / Color Schemes

Used drive : ATAPI DVD A DH16ABSH Adapter: 2 ID: 1

Read mode : Secure
Utilize accurate stream : Yes
Defeat audio cache : Yes
Make use of C2 pointers : No

Read offset correction

: 6
Overread into Lead-In and Lead-Out : No
Fill up missing offset samples with silence : Yes
Delete leading and trailing silent blocks : No
Null samples used in CRC calculations : Yes
Used interface
: Native Win32 interface for Win NT & 2000
Gap handling
: Appended to previous track

Used output format : User Defined Encoder
Selected bitrate : 768 kBit/s
Quality : High
Add ID3 tag : No
Command line compressor : C:\Program Files (x86)\Exact Audio Copy\FLAC\FLAC.EXE
Additional command line options : -6 -V -T "ARTIST=%artist%" -T "TITLE=%title%" -T "ALBUM=%albumtitle%" -T "DATE=%year%" -T "TRACKNUMBER=%tracknr%" -T "GENRE=%genre%" -T "COMMENT=%comment%" -T "BAND=%albuminterpret%" -T "ALBUMARTIST=%albuminterpret%" -T "COMPOSER=%composer%" %haslyrics%--tag-from-file=LYRICS="%lyricsfile%"%haslyrics% -T "DISCNUMBER=%cdnumber%" -T "TOTALDISCS=%totalcds%" -T "TOTALTRACKS=%numtracks%" %hascover%--picture="%coverfile%"%hascover% %source% -o %dest%

TOC of the extracted CD Track | Start | Length | Start sector | End sector
--1 | 0:00.00 | 5:52.40 | 0 | 26439 2 | 5:52.40 | 4:51.32 | 26440 | 48296 3 | 10:43.72 | 5:08.60 | 48297 | 71456 4 | 15:52.57 | 5:26.33 | 71457 | 95939 5 | 21:19.15 | 6:53.40 | 95940 | 126954 6 | 28:12.55 | 4:14.00 | 126955 | 146004 7 | 32:26.55 | 4:38.30 | 146005 | 166884 8 | 37:05.10 | 6:17.20 | 166885 | 195179

Track 1 Filename C:\Users\owner\Uploads\Ex\Bobby Hutcherson - Color Schemes (1985) [FLAC]\01 - Recorda-me.wav Pre-gap length 0:00:02.00 Peak level 66.2 %
Extraction speed 1.5 X
Track quality 99.9 %
Test CRC 779432FD
Copy CRC 779432FD
Accurately ripped (confidence 2) [01EAD39A] (AR v1)
Copy OK

Track 2 Filename C:\Users\owner\Uploads\Ex\Bobby Hutcherson - Color Schemes (1985) [FLAC]\02 - Bemsha Swing.wav Peak level 62.9 %
Extraction speed 2.1 X
Track quality 100.0 %
Test CRC 799BEFA9
Copy CRC 799BEFA9
Accurately ripped (confidence 2) [18086300] (AR v1)
Copy OK

Track 3 Filename C:\Users\owner\Uploads\Ex\Bobby Hutcherson - Color Schemes (1985) [FLAC]\03 - Rosemary, Rosemary.wav Peak level 53.9 %
Extraction speed 2.4 X
Track quality 100.0 %
Test CRC D84896C7
Copy CRC D84896C7
Accurately ripped (confidence 2) [0A61AE0D] (AR v1)
Copy OK

Track 4 Filename C:\Users\owner\Uploads\Ex\Bobby Hutcherson - Color Schemes (1985) [FLAC]\04 - Second-Hand Brown.wav Peak level 72.7 %
Extraction speed 2.6 X
Track quality 100.0 %
Test CRC 7E0111A6
Copy CRC 7E0111A6
Accurately ripped (confidence 2) 7C7B859 (AR v1)
Copy OK

Track 5 Filename C:\Users\owner\Uploads\Ex\Bobby Hutcherson - Color Schemes (1985) [FLAC]\05 - Whisper Not.wav Peak level 57.9 %
Extraction speed 2.8 X
Track quality 100.0 %
Test CRC 3286735F
Copy CRC 3286735F
Accurately ripped (confidence 2) [24C34908] (AR v1)
Copy OK

Track 6 Filename C:\Users\owner\Uploads\Ex\Bobby Hutcherson - Color Schemes (1985) [FLAC]\06 - Color Scheme.wav Peak level 55.3 %
Extraction speed 2.2 X
Track quality 99.9 %
Test CRC 017C1421
Copy CRC 017C1421
Accurately ripped (confidence 2) [F3E77BF8] (AR v1)
Copy OK

Track 7 Filename C:\Users\owner\Uploads\Ex\Bobby Hutcherson - Color Schemes (1985) [FLAC]\07 - Remember.wav Peak level 66.3 %
Extraction speed 3.1 X
Track quality 100.0 %
Test CRC FF1B8F18
Copy CRC FF1B8F18
Accurately ripped (confidence 2) [FCDC26DD] (AR v1)
Copy OK

Track 8 Filename C:\Users\owner\Uploads\Ex\Bobby Hutcherson - Color Schemes (1985) [FLAC]\08 - Never Let Me Go.wav Peak level 91.0 %
Extraction speed 3.4 X
Track quality 100.0 %
Test CRC C8FCC3A6
Copy CRC C8FCC3A6
Accurately ripped (confidence 2) [34A04393] (AR v1)
Copy OK

All tracks accurately ripped

No errors occurred

End of status report

==== Log checksum ECA33AB9BE9D94490EB50378B65EE13B6510639C3F78772D9DAF99A3A0C4E74B ====

Bobby Hutcherson - Color Schemes (1985) {Landmark Records}

Bobby Hutcherson - Color Schemes (1985) {Landmark Records}


All thanks goes to the original releaser!
DOWNLOAD LINKS
Buy Premium From My Links To Get Resumable Support & Max Speed & To Support Me


Links are Interchangeable - No Password - Single Extraction
Direct Download

Tags: Hutcherson, Schemes, Landmark, Records

Bobby Hutcherson - Color Schemes (1985) {Landmark Records} Download via Hotfile Rapidshare Fileserve Megaupload & FileSonic, Bobby Hutcherson - Color Schemes (1985) {Landmark Records} free torrent downloads included crack, serial, keygen.Bobby Hutcherson - Color Schemes (1985) {Landmark Records} Fast Download via Rapidshare Hotfile Fileserve Filesonic Megaupload, Bobby Hutcherson - Color Schemes (1985) {Landmark Records} Torrents and Emule Download or anything related.
Leave a Comment
Your Name:
E-Mail:
Add Comments:

Enter Code: