Atelier Schola Cantorum Vol. 8: Heinz Holliger - Scardanelli-Zyklus (1994)

Download Now

Atelier Schola Cantorum Vol. 8: Heinz Holliger - Scardanelli-Zyklus (1994)

Atelier Schola Cantorum Vol. 8: Heinz Holliger - Scardanelli-Zyklus (1994)
Classical/ Contemporary | FLAC lossless/3cd | cuesheets+logs | covers+booklet | 2h12m25s | 500mb
Label: Cadenza | cat. no. 800 898/899/900

Volume eight, the final 3cd of this remarkable set. As you can read on the front cover, this is the word premiere of Holliger's famous Scardanelli-Zyklus, based on the life and works of the German poet Friedrich Hölderlin. It differs considerably from the issue on ECM that most of you will have; that is to say, especially in track length. Moreover, the ECM edition contains a track which is not on this issue, the Ostinato Funebre. I suppose Holliger added it in an afterthought, thinking it not complete or something. He participated as a conductor in both editions.

Tracks:

Cd1 - Part I
01. Frühling II [0:04:38.60]
02. Sommerkanon IV [0:02:11.26]
03. Sommer II [0:07:22.49]
04. Bruchstücke [0:07:05.84]
05. Herbst III [0:06:56.42]
06. Glocken-Alphabet [0:06:43.37]
07. Winter III [0:09:24.56]

Cd2 - Part II
01. Schaufelrad [0:07:17.26]
02. Sommer III [0:05:23.06]
03. Herbst II [0:04:52.69]
04. Eisblumen [0:05:49.80]
05. Winter I [0:02:40.77]
06. Engführung [0:09:42.62]
07. Frühling I [0:06:33.77]

Cd3 - Part III
01. Frühling III [0:03:52.49]
02. Sommer I [0:04:08.93]
03. Der ferne Klang [0:06:26.57]
04. t(air)e [0:13:15.16]
05. ad maginem [0:07:18.93]
06. Herbst I [0:05:30.40]
07. Winter II [0:05:06.50]

Performers:

Aurèle Nicolet - flute
Schola Cantorum Stuttgart - Clytus Gottwald
SWF Sinfonieorchester Baden-Baden - Heinz Holliger

Exact Audio Copy V1.0 beta 3 from 29. August 2011

EAC extraction logfile from 9. October 2015, 3:17

Heinz Holliger / Atelier Schola Cantorum vol.8 - Scardanelli-Zyklus cd1

Used drive : TSSTcorpCDDVDW SH-216AB Adapter: 0 ID: 0

Read mode : Secure
Utilize accurate stream : Yes
Defeat audio cache : Yes
Make use of C2 pointers : No

Read offset correction

: 6
Overread into Lead-In and Lead-Out : No
Fill up missing offset samples with silence : Yes
Delete leading and trailing silent blocks : No
Null samples used in CRC calculations : Yes
Used interface
: Native Win32 interface for Win NT & 2000
Gap handling
: Appended to previous track

Used output format : User Defined Encoder
Selected bitrate : 768 kBit/s
Quality : High
Add ID3 tag : No
Command line compressor : C:\Program Files (x86)\FLAC Frontend\tools\flac.exe
Additional command line options : -8 -V -T "ARTIST=%artist%" -T "TITLE=%title%" -T "ALBUM=%albumtitle%" -T "DATE=%year%" -T "TRACKNUMBER=%tracknr%" -T "GENRE=%genre%" -T "PERFORMER=%albuminterpret%" -T "COMPOSER=%composer%" %haslyrics%--tag-from-file=LYRICS="%lyricsfile%"%haslyrics% -T "ALBUMARTIST=%albumartist%" -T "DISCNUMBER=%cdnumber%" -T "TOTALDISCS=%totalcds%" -T "TOTALTRACKS=%numtracks%" -T "COMMENT=%comment%" %source% -o %dest%

TOC of the extracted CD Track | Start | Length | Start sector | End sector
--1 | 0:00.00 | 4:38.45 | 0 | 20894 2 | 4:38.45 | 2:11.20 | 20895 | 30739 3 | 6:49.65 | 7:22.37 | 30740 | 63926 4 | 14:12.27 | 7:05.63 | 63927 | 95864 5 | 21:18.15 | 6:56.32 | 95865 | 127096 6 | 28:14.47 | 6:43.28 | 127097 | 157349 7 | 34:58.00 | 9:24.42 | 157350 | 199691

Track 1 Filename H:\Users\astarte\03. POST\atelier schola cantorum 8\1\01 Frühling II.wav Pre-gap length 0:00:02.00 Peak level 53.3 %
Extraction speed 1.8 X
Track quality 100.0 %
Copy CRC 6A1AFEEA
Accurately ripped (confidence 1) [776A67E2] (AR v2)
Copy OK

Track 2 Filename H:\Users\astarte\03. POST\atelier schola cantorum 8\1\02 Sommerkanon IV.wav Peak level 12.1 %
Extraction speed 1.7 X
Track quality 100.0 %
Copy CRC 2C66632F
Accurately ripped (confidence 1) [F1C63196] (AR v2)
Copy OK

Track 3 Filename H:\Users\astarte\03. POST\atelier schola cantorum 8\1\03 Sommer II.wav Peak level 9.5 %
Extraction speed 2.3 X
Track quality 100.0 %
Copy CRC AC311868
Accurately ripped (confidence 1) [6994136F] (AR v2)
Copy OK

Track 4 Filename H:\Users\astarte\03. POST\atelier schola cantorum 8\1\04 Bruchstücke.wav Peak level 100.0 %
Extraction speed 2.6 X
Track quality 100.0 %
Copy CRC 816D1E9A
Accurately ripped (confidence 1) [F86E1FC9] (AR v2)
Copy OK

Track 5 Filename H:\Users\astarte\03. POST\atelier schola cantorum 8\1\05 Herbst III.wav Peak level 59.2 %
Extraction speed 2.8 X
Track quality 100.0 %
Copy CRC 1E41804A
Accurately ripped (confidence 1) [631662A5] (AR v2)
Copy OK

Track 6 Filename H:\Users\astarte\03. POST\atelier schola cantorum 8\1\06 Glocken-Alphabet.wav Peak level 28.5 %
Extraction speed 2.8 X
Track quality 99.9 %
Copy CRC 18D1A386
Accurately ripped (confidence 1) [5B50F007] (AR v2)
Copy OK

Track 7 Filename H:\Users\astarte\03. POST\atelier schola cantorum 8\1\07 Winter III.wav Peak level 6.0 %
Extraction speed 3.3 X
Track quality 100.0 %
Copy CRC 703BEC36
Accurately ripped (confidence 1) [8C841C87] (AR v2)
Copy OK

All tracks accurately ripped

No errors occurred

End of status report

==== Log checksum CCB0F0E569401C34466A1DC139F57C310915418C27A4D2B3396E8E9EE3B2DBA2 ====

Exact Audio Copy V1.0 beta 3 from 29. August 2011

EAC extraction logfile from 9. October 2015, 3:41

Heinz Holliger / Atelier Schola Cantorum Vol. 8 - Scardanelli-Zyklus cd2

Used drive : TSSTcorpCDDVDW SH-216AB Adapter: 0 ID: 0

Read mode : Secure
Utilize accurate stream : Yes
Defeat audio cache : Yes
Make use of C2 pointers : No

Read offset correction

: 6
Overread into Lead-In and Lead-Out : No
Fill up missing offset samples with silence : Yes
Delete leading and trailing silent blocks : No
Null samples used in CRC calculations : Yes
Used interface
: Native Win32 interface for Win NT & 2000
Gap handling
: Appended to previous track

Used output format : User Defined Encoder
Selected bitrate : 768 kBit/s
Quality : High
Add ID3 tag : No
Command line compressor : C:\Program Files (x86)\FLAC Frontend\tools\flac.exe
Additional command line options : -8 -V -T "ARTIST=%artist%" -T "TITLE=%title%" -T "ALBUM=%albumtitle%" -T "DATE=%year%" -T "TRACKNUMBER=%tracknr%" -T "GENRE=%genre%" -T "PERFORMER=%albuminterpret%" -T "COMPOSER=%composer%" %haslyrics%--tag-from-file=LYRICS="%lyricsfile%"%haslyrics% -T "ALBUMARTIST=%albumartist%" -T "DISCNUMBER=%cdnumber%" -T "TOTALDISCS=%totalcds%" -T "TOTALTRACKS=%numtracks%" -T "COMMENT=%comment%" %source% -o %dest%

TOC of the extracted CD Track | Start | Length | Start sector | End sector
--1 | 0:00.00 | 7:17.20 | 0 | 32794 2 | 7:17.20 | 5:23.05 | 32795 | 57024 3 | 12:40.25 | 4:52.52 | 57025 | 78976 4 | 17:33.02 | 5:49.60 | 78977 | 105211 5 | 23:22.62 | 2:40.58 | 105212 | 117269 6 | 26:03.45 | 9:42.47 | 117270 | 160966 7 | 35:46.17 | 6:33.58 | 160967 | 190499

Track 1 Filename H:\Users\astarte\03. POST\atelier schola cantorum 8\2\01 Schaufelrad.wav Pre-gap length 0:00:02.00 Peak level 11.8 %
Extraction speed 1.9 X
Track quality 99.9 %
Copy CRC 7E684B2E
Accurately ripped (confidence 1) [987C02BE] (AR v2)
Copy OK

Track 2 Filename H:\Users\astarte\03. POST\atelier schola cantorum 8\2\02 Sommer III.wav Pre-gap length 0:00:06.40 Peak level 13.9 %
Extraction speed 2.1 X
Track quality 100.0 %
Copy CRC 97379E6D
Accurately ripped (confidence 1) [EB479593] (AR v2)
Copy OK

Track 3 Filename H:\Users\astarte\03. POST\atelier schola cantorum 8\2\03 Herbst II.wav Pre-gap length 0:00:06.44 Peak level 13.2 %
Extraction speed 2.3 X
Track quality 100.0 %
Copy CRC 46E9ED74
Accurately ripped (confidence 1) [85773CA9] (AR v2)
Copy OK

Track 4 Filename H:\Users\astarte\03. POST\atelier schola cantorum 8\2\04 Eisblumen.wav Pre-gap length 0:00:04.13 Peak level 13.6 %
Extraction speed 2.6 X
Track quality 100.0 %
Copy CRC 055C3155
Accurately ripped (confidence 1) [978E4238] (AR v2)
Copy OK

Track 5 Filename H:\Users\astarte\03. POST\atelier schola cantorum 8\2\05 Winter I.wav Pre-gap length 0:00:02.86 Peak level 22.2 %
Extraction speed 2.4 X
Track quality 100.0 %
Copy CRC 2C5D034D
Accurately ripped (confidence 1) [CBF57289] (AR v2)
Copy OK

Track 6 Filename H:\Users\astarte\03. POST\atelier schola cantorum 8\2\06 Engführung.wav Pre-gap length 0:00:03.64 Peak level 17.4 %
Extraction speed 2.9 X
Track quality 99.9 %
Copy CRC 85AE531E
Accurately ripped (confidence 1) [CA4DEC09] (AR v2)
Copy OK

Track 7 Filename H:\Users\astarte\03. POST\atelier schola cantorum 8\2\07 Frühling I.wav Pre-gap length 0:00:01.60 Peak level 30.6 %
Extraction speed 2.9 X
Track quality 99.9 %
Copy CRC B80564EB
Accurately ripped (confidence 1) [90A8401D] (AR v2)
Copy OK

All tracks accurately ripped

No errors occurred

End of status report

==== Log checksum 93C50F6010767ECB46BF7F8E17FCD6EE9984FC8C934FBE533CC5EF3B0CC79F3A ====

Exact Audio Copy V1.0 beta 3 from 29. August 2011

EAC extraction logfile from 9. October 2015, 3:53

Heinz Holliger / Atelier Schola Cantorum Vol. 8 - Scardanelli-Zyklus cd3

Used drive : TSSTcorpCDDVDW SH-216AB Adapter: 0 ID: 0

Read mode : Secure
Utilize accurate stream : Yes
Defeat audio cache : Yes
Make use of C2 pointers : No

Read offset correction

: 6
Overread into Lead-In and Lead-Out : No
Fill up missing offset samples with silence : Yes
Delete leading and trailing silent blocks : No
Null samples used in CRC calculations : Yes
Used interface
: Native Win32 interface for Win NT & 2000
Gap handling
: Appended to previous track

Used output format : User Defined Encoder
Selected bitrate : 768 kBit/s
Quality : High
Add ID3 tag : No
Command line compressor : C:\Program Files (x86)\FLAC Frontend\tools\flac.exe
Additional command line options : -8 -V -T "ARTIST=%artist%" -T "TITLE=%title%" -T "ALBUM=%albumtitle%" -T "DATE=%year%" -T "TRACKNUMBER=%tracknr%" -T "GENRE=%genre%" -T "PERFORMER=%albuminterpret%" -T "COMPOSER=%composer%" %haslyrics%--tag-from-file=LYRICS="%lyricsfile%"%haslyrics% -T "ALBUMARTIST=%albumartist%" -T "DISCNUMBER=%cdnumber%" -T "TOTALDISCS=%totalcds%" -T "TOTALTRACKS=%numtracks%" -T "COMMENT=%comment%" %source% -o %dest%

TOC of the extracted CD Track | Start | Length | Start sector | End sector
--1 | 0:00.00 | 3:52.37 | 0 | 17436 2 | 3:52.37 | 4:08.70 | 17437 | 36106 3 | 8:01.32 | 6:26.43 | 36107 | 65099 4 | 14:28.00 | 13:15.12 | 65100 | 124736 5 | 27:43.12 | 7:18.70 | 124737 | 157656 6 | 35:02.07 | 5:30.30 | 157657 | 182436 7 | 40:32.37 | 5:06.38 | 182437 | 205424

Track 1 Filename H:\Users\astarte\03. POST\atelier schola cantorum 8\3\01 Frühling III.wav Pre-gap length 0:00:02.00 Peak level 63.4 %
Extraction speed 4.3 X
Track quality 100.0 %
Copy CRC 1C64FB4F
Accurately ripped (confidence 1) [533188FA] (AR v2)
Copy OK

Track 2 Filename H:\Users\astarte\03. POST\atelier schola cantorum 8\3\02 Sommer I.wav Pre-gap length 0:00:03.36 Peak level 14.4 %
Extraction speed 4.9 X
Track quality 100.0 %
Copy CRC 400AFD42
Accurately ripped (confidence 1) [4C7B5730] (AR v2)
Copy OK

Track 3 Filename H:\Users\astarte\03. POST\atelier schola cantorum 8\3\03 Der ferne Klang.wav Pre-gap length 0:00:04.26 Peak level 12.5 %
Extraction speed 5.7 X
Track quality 100.0 %
Copy CRC 09A35A3A
Accurately ripped (confidence 1) [94CFC042] (AR v2)
Copy OK

Track 4 Filename H:\Users\astarte\03. POST\atelier schola cantorum 8\3\04 t(air)e.wav Peak level 92.4 %
Extraction speed 6.5 X
Track quality 99.9 %
Copy CRC 50CE620E
Accurately ripped (confidence 1) [AFCAFC5D] (AR v2)
Copy OK

Track 5 Filename H:\Users\astarte\03. POST\atelier schola cantorum 8\3\05 ad maginem.wav Peak level 9.9 %
Extraction speed 7.4 X
Track quality 100.0 %
Copy CRC 6153A2B1
Accurately ripped (confidence 1) [07506938] (AR v2)
Copy OK

Track 6 Filename H:\Users\astarte\03. POST\atelier schola cantorum 8\3\06 Herbst I.wav Pre-gap length 0:00:05.82 Peak level 93.3 %
Extraction speed 7.8 X
Track quality 100.0 %
Copy CRC 5AE064DC
Accurately ripped (confidence 1) [4004E8AC] (AR v2)
Copy OK

Track 7 Filename H:\Users\astarte\03. POST\atelier schola cantorum 8\3\07 Winter II.wav Pre-gap length 0:00:02.53 Peak level 7.1 %
Extraction speed 8.0 X
Track quality 100.0 %
Copy CRC 26E5A789
Accurately ripped (confidence 1) [1981920D] (AR v2)
Copy OK

All tracks accurately ripped

No errors occurred

End of status report

==== Log checksum 26734F41A036CD7285B07BB2798873B2122EA451EF8D59F8AADA8D8138DD479D ====
DOWNLOAD LINKS
Buy Premium From My Links To Get Resumable Support & Max Speed & To Support Me


Links are Interchangeable - No Password - Single Extraction
Direct Download

Tags: Atelier, Schola, Cantorum, Holliger, Scardanelli

Atelier Schola Cantorum Vol. 8: Heinz Holliger - Scardanelli-Zyklus (1994) Download via Hotfile Rapidshare Fileserve Megaupload & FileSonic, Atelier Schola Cantorum Vol. 8: Heinz Holliger - Scardanelli-Zyklus (1994) free torrent downloads included crack, serial, keygen.Atelier Schola Cantorum Vol. 8: Heinz Holliger - Scardanelli-Zyklus (1994) Fast Download via Rapidshare Hotfile Fileserve Filesonic Megaupload, Atelier Schola Cantorum Vol. 8: Heinz Holliger - Scardanelli-Zyklus (1994) Torrents and Emule Download or anything related.
Leave a Comment
Your Name:
E-Mail:
Add Comments:

Enter Code: