Rufus with Chaka Khan - Camouflage (1981) [2004, Japanese Paper Sleeve Mini-LP CD]

Download Now

Rufus with Chaka Khan - Camouflage (1981) [2004, Japanese Paper Sleeve Mini-LP CD]

Rufus with Chaka Khan - Camouflage (1981) [2004, Japanese Paper Sleeve Mini-LP CD]
R&B, Soul/Funk, Electronic, Disco | EAC Rip | FLAC, Img+CUE + LOG + Full Artwork-600dpi (PNG) | 35:14 Min | 349,00 Mb
Label: UM³/USM Japan (Japan) / Geffen Records (USA) | Released: 2004, March, 3

"
Camouflage is the tenth studio album by funk band Rufus (billed as Rufus with Chaka Khan), released on the MCA Records label in 1981. Camouflage peaked at #15 on Billboard's R&B Albums chart and stalled at #98 on Pop. The album includes the singles "Sharing the Love" (US R&B 8, US Pop #91) and "Better Together" (US R&B #66, US Dance #56).
"

Rufus with Chaka Khan - Camouflage (1981) [2004, Japanese Paper Sleeve Mini-LP CD]

Rufus with Chaka Khan - Camouflage (1981) [2004, Japanese Paper Sleeve Mini-LP CD]


Release of the album: 1981, October [LP MCA Records, Cat.# MCA-5270, USA]
Release of this CD: 2004, March, 3 [CD UM³/USM Japan (Japan), Cat.# UICY-9410 / EAN: 4988005357137]
℗ 1981 Geffen Records
UM³/USM Japan, a division of UNIVERSAL JAPAN K.K.
A UNIVERSAL MUSIC COMPANY, STEREO KY
Marketed & Distributed by UNIVERSAL MUSIC K.K.
Geffen Paper Sleeve Collection
Made in Japan

Note: Remastered reissue of the 1981 album. Comes housed in a cardboard sleeve.

Arranged By [Horns, Strings] - Jerry Hey
Arranged By [Vocals], Guitar, Vocals - Tony Maiden
Arranged By [Vocals], Vocals - Chaka Khan
Art Direction - Vartan
Backing Vocals - Lalomie Washburn, Rene Moore-Angela Winbush
Bass - Bobby Watson
Design - Andy Engel, Rod Dyer Inc.
Drums - John Robinson
Engineer - John Van Nest
Engineer [Assistant] - Ed Sanders
Horns - Gary Grant, Jerry Hey, Larry Williams, Pete Christlieb
Keyboards - David "Hawk" Wolinski, Greg Phillinganes, Kevin Murphy, Rene Moore-Angela Winbush
Mastered By - Brian Gardner
Mixed By - Bruce Swedien
Musical Assistance [Production] - Ivy Scott
Percussion - John Robinson, Paulinho Da Costa
Photography By - Ron Slenzak
Producer - Rufus
Steel Drums - Vince Charles
Synthesizer - David "Hawk" Wolinski


Tracklist:

01. Better Together (03:42)
(Lalomie Washburn, Tony Maiden)
02. Jigsaw (03:56)
(Chaka Khan, Tony Maiden)
03. Secret Friend (03:59)
(Allee Willis, Bobby Watson, Rene Moore-Angela Winbush, Tony Maiden)
04. Music Man (The D.J. Song) (03:51)
(David Wolinski, John Robinson)
05. True Love (03:43)
(David Wolinski)
06. Sharing The Love (04:02)
(Kevin Murphy)
07. Quandary (04:50)
(Chaka Khan, Tony Maiden)
08. Lilah (04:05)
(Allee Willis, David Wolinski)
09. Losers In Love (03:06)
(Danny Seraphine, David Wolinski)
10. Highlight (03:14)
(Bobby Watson, Rene Moore-Angela Winbush)

"Highlight" recorded at The Record Plant, Los Angeles
Mastered at Allen Zentz Mastering
Recorded at Allen Zentz Studio, Hollywood, California


Exact Audio Copy V1.0 beta 3 from 29. August 2011

EAC extraction logfile from 10. October 2015, 23:22

Rufus with Chaka Khan / Camouflage

Used drive : PIONEER BD-RW BDR-208D Adapter: 1 ID: 0

Read mode : Secure
Utilize accurate stream : Yes
Defeat audio cache : Yes
Make use of C2 pointers : No

Read offset correction

: 667
Overread into Lead-In and Lead-Out : No
Fill up missing offset samples with silence : Yes
Delete leading and trailing silent blocks : No
Null samples used in CRC calculations : Yes
Used interface
: Native Win32 interface for Win NT & 2000

Used output format : Internal WAV Routines
Sample format : 44.100 Hz; 16 Bit; Stereo

TOC of the extracted CD Track | Start | Length | Start sector | End sector
--1 | 0:00.00 | 3:41.57 | 0 | 16631 2 | 3:41.57 | 3:55.63 | 16632 | 34319 3 | 7:37.45 | 3:58.57 | 34320 | 52226 4 | 11:36.27 | 3:50.58 | 52227 | 69534 5 | 15:27.10 | 3:42.70 | 69535 | 86254 6 | 19:10.05 | 4:02.15 | 86255 | 104419 7 | 23:12.20 | 4:50.17 | 104420 | 126186 8 | 28:02.37 | 4:05.08 | 126187 | 144569 9 | 32:07.45 | 3:06.30 | 144570 | 158549
10 | 35:14.00 | 3:14.20 | 158550 | 173119

Range status and errors

Selected range Filename D:\BlondStyle\Camouflage.wav Peak level 99.8 %
Extraction speed 6.5 X
Range quality 100.0 %
Test CRC 3FA86AC9
Copy CRC 3FA86AC9
Copy OK

No errors occurred


AccurateRip summary

Track 1 accurately ripped (confidence 3) [94F86886] (AR v2)
Track 2 accurately ripped (confidence 3) [8A28C739] (AR v2)
Track 3 accurately ripped (confidence 3) B54CB14 (AR v2)
Track 4 accurately ripped (confidence 3) [FE0D9674] (AR v2)
Track 5 accurately ripped (confidence 3) [532D98C2] (AR v2)
Track 6 accurately ripped (confidence 3) [1806700B] (AR v2)
Track 7 accurately ripped (confidence 2) [7B1BA0EB] (AR v2)
Track 8 accurately ripped (confidence 3) [56BA9825] (AR v2)
Track 9 accurately ripped (confidence 3) [8F5E571A] (AR v2)
Track 10 accurately ripped (confidence 3) [AE3492A3] (AR v2)

All tracks accurately ripped

End of status report

- CUETools DB Plugin V2.1.3

[CTDB TOCID: RWPjDMcc4csj6w0.2NXcoGecXaE-] found, Submit result: RWPjDMcc4csj6w0.2NXcoGecXaE- has been confirmed
[3cc07adb] (2/2) Accurately ripped

==== Log checksum 89DAF122565E430414D84FAFB02DBDB3A9CBACD976CA199F6A6282CCE4614809 ====

foobar2000 1.3.7 / Dynamic Range Meter 1.1.1
log date: 2015-10-10 23:32:38

Analyzed: Rufus with Chaka Khan / Camouflage

DR Peak RMS Duration Track

DR9 -0.01 dB -10.36 dB 3:42 01-Better Together
DR10 -0.01 dB -11.44 dB 3:56 02-Jigsaw
DR10 -0.01 dB -11.24 dB 3:59 03-Secret Friend
DR10 -0.01 dB -11.14 dB 3:51 04-Music Man (The D.J. Song)
DR10 -0.01 dB -11.77 dB 3:43 05-True Love
DR9 -0.01 dB -10.91 dB 4:02 06-Sharing The Love
DR10 -0.01 dB -12.05 dB 4:50 07-Quandary
DR11 -0.01 dB -12.41 dB 4:05 08-Lilah
DR11 -0.01 dB -12.27 dB 3:06 09-Losers In Love
DR12 -0.01 dB -13.70 dB 3:14 10-Highlight

Number of tracks: 10
Official DR value: DR10

Samplerate: 44100 Hz
Channels: 2
Bits per sample: 16
Bitrate: 1411 kbps
Codec: PCM



password: BlondStyle

DOWNLOAD LINKS
Buy Premium From My Links To Get Resumable Support & Max Speed & To Support Me


Links are Interchangeable - No Password - Single Extraction
Direct Download

Tags: Camouflage, Japanese, Sleeve

Rufus with Chaka Khan - Camouflage (1981) [2004, Japanese Paper Sleeve Mini-LP CD] Download via Hotfile Rapidshare Fileserve Megaupload & FileSonic, Rufus with Chaka Khan - Camouflage (1981) [2004, Japanese Paper Sleeve Mini-LP CD] free torrent downloads included crack, serial, keygen.Rufus with Chaka Khan - Camouflage (1981) [2004, Japanese Paper Sleeve Mini-LP CD] Fast Download via Rapidshare Hotfile Fileserve Filesonic Megaupload, Rufus with Chaka Khan - Camouflage (1981) [2004, Japanese Paper Sleeve Mini-LP CD] Torrents and Emule Download or anything related.
Leave a Comment
Your Name:
E-Mail:
Add Comments:

Enter Code: