V.A. - Afro Zen Chillout (2008)

Download Now

V.A. - Afro Zen Chillout (2008)

V.A. - Afro Zen Chillout (2008)
EAC Rip | FLAC (tracks+.cue+log) - 815 MB | MP3 CBR 320 kbps (LAME 3.93) - 302 MB | Covers (11 MB) included
Genre: Downtempo, Ambient, Breakbeat | RAR 3% Rec. | Label: Soul Candi Records (SICD014)

"Afro Zen Chillout is compiled and mixed by Digital Lama, who blends a fusion of distinctive sounds: ambient, world, acoustic, dub, vocal, downtempo breakbeat and house, interwoven to unite both local and international artists' unique musical interpretations of the magical African continent. Cell, Vir Unis, Solar Fields, Vibrasphere and many more."

CD 1 Tracklist (Contemplation):
01. Cell - Spiritual Moves
02. Vir Unis - Light Curve
03. Ochi Brothers - Flowing Synergy
04. Kalpataru Tree - Dark Clouds
05. Solar Fields - Velvet Reptile
06. Kalpataru Tree - Spiral Snakeskin
07. Vibrasphere - Abra
08. Gravity South - Zimamele
09. Paul Kwitek - In The Past
10. Vibrasphere - Eternal Feedback
11. Omnimotion feat. Adam Perski - Purple Sky
12. V A L D I - The Promised Land (Vocal Mix)

Total time: 01:15:08

CD 2 Tracklist (Rejuvenation):
01. Afronauts - Inkolo
02. Omnimotion - Dubber
03. Indidginus - Transgenesis
04. Spies vs. Red Eye Express - Sogno D'Oro
05. Afronauts - Holding On
06. Afronauts - Southern Lights
07. MPI Project feat. Ivo Maya - My Afrika
08. Indidginus - Gene Swarm (feat. Pablo Sandoz)
09. Goldfish - The Real Deal (Fishy Beat Remix)

Total time: 48:18

Exact Audio Copy V1.0 beta 2 from 29. April 2011

EAC extraction logfile from 28. September 2011, 21:10

Various Artists / Afro Zen Chillout (CD1 - Contemplation)

Used drive : PIONEER DVD-RW DVR-218L Adapter: 2 ID: 0

Read mode : Secure
Utilize accurate stream : Yes
Defeat audio cache : Yes
Make use of C2 pointers : No

Read offset correction

: 6
Overread into Lead-In and Lead-Out : No
Fill up missing offset samples with silence : Yes
Delete leading and trailing silent blocks : No
Null samples used in CRC calculations : Yes
Used interface
: Native Win32 interface for Win NT & 2000
Gap handling
: Appended to previous track

Used output format : User Defined Encoder
Selected bitrate : 1024 kBit/s
Quality : High
Add ID3 tag : No
Command line compressor : C:\Program Files (x86)\Exact Audio Copy\Flac\flac.exe
Additional command line options : -8 -V -T "ARTIST=%artist%" -T "TITLE=%title%" -T "ALBUM=%albumtitle%" -T "DATE=%year%" -T "TRACKNUMBER=%tracknr%" -T "GENRE=%genre%" -T "COMMENT=EAC FLAC -8" %source%

TOC of the extracted CD Track | Start | Length | Start sector | End sector
--1 | 0:00.00 | 9:00.07 | 0 | 40506 2 | 9:00.07 | 7:17.42 | 40507 | 73323 3 | 16:17.49 | 6:09.08 | 73324 | 101006 4 | 22:26.57 | 7:13.42 | 101007 | 133523 5 | 29:40.24 | 7:51.34 | 133524 | 168882 6 | 37:31.58 | 9:05.02 | 168883 | 209759 7 | 46:36.60 | 8:26.18 | 209760 | 247727 8 | 55:03.03 | 5:17.45 | 247728 | 271547 9 | 60:20.48 | 2:34.14 | 271548 | 283111
10 | 62:54.62 | 3:51.67 | 283112 | 300503
11 | 66:46.54 | 4:40.32 | 300504 | 321535
12 | 71:27.11 | 3:45.71 | 321536 | 338481

Track 1 Filename H:\Music\Ambient, Chillout, Downtempo\Compilation\VA - Afro Zen Chillout (2CD) (Soul Candi, 2008) (Flac)\CD1 - Contemplation\01. Cell - Spiritual Moves.wav Pre-gap length 0:00:02.00 Peak level 97.9 %
Extraction speed 1.3 X
Track quality 100.0 %
Test CRC 060CD350
Copy CRC 060CD350
Track not present in AccurateRip database
Copy OK

Track 2 Filename H:\Music\Ambient, Chillout, Downtempo\Compilation\VA - Afro Zen Chillout (2CD) (Soul Candi, 2008) (Flac)\CD1 - Contemplation\02. Vir Unis - Light Curve.wav Peak level 95.0 %
Extraction speed 1.4 X
Track quality 99.9 %
Test CRC 0CF3D120
Copy CRC 0CF3D120
Track not present in AccurateRip database
Copy OK

Track 3 Filename H:\Music\Ambient, Chillout, Downtempo\Compilation\VA - Afro Zen Chillout (2CD) (Soul Candi, 2008) (Flac)\CD1 - Contemplation\03. Ochi Brothers - Flowing Synergy.wav Peak level 96.3 %
Extraction speed 1.7 X
Track quality 100.0 %
Test CRC FE25877D
Copy CRC FE25877D
Track not present in AccurateRip database
Copy OK

Track 4 Filename H:\Music\Ambient, Chillout, Downtempo\Compilation\VA - Afro Zen Chillout (2CD) (Soul Candi, 2008) (Flac)\CD1 - Contemplation\04. Kalpataru Tree - Dark Clouds.wav Peak level 97.9 %
Extraction speed 1.7 X
Track quality 99.9 %
Test CRC 018B8C34
Copy CRC 018B8C34
Track not present in AccurateRip database
Copy OK

Track 5 Filename H:\Music\Ambient, Chillout, Downtempo\Compilation\VA - Afro Zen Chillout (2CD) (Soul Candi, 2008) (Flac)\CD1 - Contemplation\05. Solar Fields - Velvet Reptile.wav Peak level 97.9 %
Extraction speed 1.9 X
Track quality 99.9 %
Test CRC 50799FDA
Copy CRC 50799FDA
Track not present in AccurateRip database
Copy OK

Track 6 Filename H:\Music\Ambient, Chillout, Downtempo\Compilation\VA - Afro Zen Chillout (2CD) (Soul Candi, 2008) (Flac)\CD1 - Contemplation\06. Kalpataru Tree - Spiral Snakeskin.wav Peak level 97.9 %
Extraction speed 2.2 X
Track quality 100.0 %
Test CRC 6E1B62B7
Copy CRC 6E1B62B7
Track not present in AccurateRip database
Copy OK

Track 7 Filename H:\Music\Ambient, Chillout, Downtempo\Compilation\VA - Afro Zen Chillout (2CD) (Soul Candi, 2008) (Flac)\CD1 - Contemplation\07. Vibrasphere - Abra.wav Peak level 97.9 %
Extraction speed 2.3 X
Track quality 100.0 %
Test CRC F39EABE1
Copy CRC F39EABE1
Track not present in AccurateRip database
Copy OK

Track 8 Filename H:\Music\Ambient, Chillout, Downtempo\Compilation\VA - Afro Zen Chillout (2CD) (Soul Candi, 2008) (Flac)\CD1 - Contemplation\08. Gravity South - Zimamele.wav Peak level 92.0 %
Extraction speed 2.3 X
Track quality 100.0 %
Test CRC CE546433
Copy CRC CE546433
Track not present in AccurateRip database
Copy OK

Track 9 Filename H:\Music\Ambient, Chillout, Downtempo\Compilation\VA - Afro Zen Chillout (2CD) (Soul Candi, 2008) (Flac)\CD1 - Contemplation\09. Paul Kwitek - In The Past.wav Peak level 82.0 %
Extraction speed 2.1 X
Track quality 100.0 %
Test CRC 51567B1D
Copy CRC 51567B1D
Track not present in AccurateRip database
Copy OK

Track 10 Filename H:\Music\Ambient, Chillout, Downtempo\Compilation\VA - Afro Zen Chillout (2CD) (Soul Candi, 2008) (Flac)\CD1 - Contemplation\10. Vibrasphere - Eternal Feedback.wav Peak level 97.9 %
Extraction speed 2.3 X
Track quality 100.0 %
Test CRC 200E487F
Copy CRC 200E487F
Track not present in AccurateRip database
Copy OK

Track 11 Filename H:\Music\Ambient, Chillout, Downtempo\Compilation\VA - Afro Zen Chillout (2CD) (Soul Candi, 2008) (Flac)\CD1 - Contemplation\11. Omnimotion feat. Adam Perski - Purple Sky.wav Peak level 97.9 %
Extraction speed 2.5 X
Track quality 100.0 %
Test CRC 294AFB2E
Copy CRC 294AFB2E
Track not present in AccurateRip database
Copy OK

Track 12 Filename H:\Music\Ambient, Chillout, Downtempo\Compilation\VA - Afro Zen Chillout (2CD) (Soul Candi, 2008) (Flac)\CD1 - Contemplation\12. V A L D I - The Promised Land (Vocal Mix).wav Peak level 64.0 %
Extraction speed 2.4 X
Track quality 100.0 %
Test CRC EA78B570
Copy CRC EA78B570
Track not present in AccurateRip database
Copy OK

None of the tracks are present in the AccurateRip database

No errors occurred

End of status report

==== Log checksum A63B6AC6259E19760F52A0ADF4F9F00C01835346DB07E4CA36B48F67EC5FC496 ====

Exact Audio Copy V1.0 beta 2 from 29. April 2011

EAC extraction logfile from 28. September 2011, 22:21

Various Artists / Afro Zen Chillout (CD2 - Rejuvenation)

Used drive : PIONEER DVD-RW DVR-218L Adapter: 2 ID: 0

Read mode : Secure
Utilize accurate stream : Yes
Defeat audio cache : Yes
Make use of C2 pointers : No

Read offset correction

: 6
Overread into Lead-In and Lead-Out : No
Fill up missing offset samples with silence : Yes
Delete leading and trailing silent blocks : No
Null samples used in CRC calculations : Yes
Used interface
: Native Win32 interface for Win NT & 2000
Gap handling
: Appended to previous track

Used output format : User Defined Encoder
Selected bitrate : 1024 kBit/s
Quality : High
Add ID3 tag : No
Command line compressor : C:\Program Files (x86)\Exact Audio Copy\Flac\flac.exe
Additional command line options : -8 -V -T "ARTIST=%artist%" -T "TITLE=%title%" -T "ALBUM=%albumtitle%" -T "DATE=%year%" -T "TRACKNUMBER=%tracknr%" -T "GENRE=%genre%" -T "COMMENT=EAC FLAC -8" %source%

TOC of the extracted CD Track | Start | Length | Start sector | End sector
--1 | 0:00.00 | 5:25.34 | 0 | 24408 2 | 5:25.34 | 5:21.27 | 24409 | 48510 3 | 10:46.61 | 4:52.05 | 48511 | 70415 4 | 15:38.66 | 4:29.44 | 70416 | 90634 5 | 20:08.35 | 5:35.46 | 90635 | 115805 6 | 25:44.06 | 4:39.64 | 115806 | 136794 7 | 30:23.70 | 5:52.18 | 136795 | 163212 8 | 36:16.13 | 6:12.20 | 163213 | 191132 9 | 42:28.33 | 5:53.16 | 191133 | 217623

Track 1 Filename H:\Music\Ambient, Chillout, Downtempo\Compilation\VA - Afro Zen Chillout (2CD) (Soul Candi, 2008) (Flac)\CD2 - Rejuvenation\01. Afronauts - Inkolo.wav Pre-gap length 0:00:02.00 Peak level 92.9 %
Extraction speed 1.2 X
Track quality 100.0 %
Test CRC 49EF9BB8
Copy CRC 49EF9BB8
Track not present in AccurateRip database
Copy OK

Track 2 Filename H:\Music\Ambient, Chillout, Downtempo\Compilation\VA - Afro Zen Chillout (2CD) (Soul Candi, 2008) (Flac)\CD2 - Rejuvenation\02. Omnimotion - Dubber.wav Peak level 93.8 %
Extraction speed 1.2 X
Track quality 99.9 %
Test CRC D8E6C5D4
Copy CRC D8E6C5D4
Track not present in AccurateRip database
Copy OK

Track 3 Filename H:\Music\Ambient, Chillout, Downtempo\Compilation\VA - Afro Zen Chillout (2CD) (Soul Candi, 2008) (Flac)\CD2 - Rejuvenation\03. Indidginus - Transgenesis.wav Peak level 93.8 %
Extraction speed 1.5 X
Track quality 100.0 %
Test CRC 7B8B908D
Copy CRC 7B8B908D
Track not present in AccurateRip database
Copy OK

Track 4 Filename H:\Music\Ambient, Chillout, Downtempo\Compilation\VA - Afro Zen Chillout (2CD) (Soul Candi, 2008) (Flac)\CD2 - Rejuvenation\04. Spies vs. Red Eye Express - Sogno D'Oro.wav Peak level 93.8 %
Extraction speed 1.4 X
Track quality 99.9 %
Test CRC 4D2B34CA
Copy CRC 4D2B34CA
Track not present in AccurateRip database
Copy OK

Track 5 Filename H:\Music\Ambient, Chillout, Downtempo\Compilation\VA - Afro Zen Chillout (2CD) (Soul Candi, 2008) (Flac)\CD2 - Rejuvenation\05. Afronauts - Holding On.wav Peak level 97.4 %
Extraction speed 1.6 X
Track quality 99.9 %
Test CRC 7C66B909
Copy CRC 7C66B909
Track not present in AccurateRip database
Copy OK

Track 6 Filename H:\Music\Ambient, Chillout, Downtempo\Compilation\VA - Afro Zen Chillout (2CD) (Soul Candi, 2008) (Flac)\CD2 - Rejuvenation\06. Afronauts - Southern Lights.wav Peak level 97.4 %
Extraction speed 1.6 X
Track quality 99.9 %
Test CRC F46F4C0B
Copy CRC F46F4C0B
Track not present in AccurateRip database
Copy OK

Track 7 Filename H:\Music\Ambient, Chillout, Downtempo\Compilation\VA - Afro Zen Chillout (2CD) (Soul Candi, 2008) (Flac)\CD2 - Rejuvenation\07. MPI Project feat. Ivo Maya - My Afrika.wav Peak level 89.9 %
Extraction speed 1.8 X
Track quality 99.9 %
Test CRC DC9CA744
Copy CRC DC9CA744
Track not present in AccurateRip database
Copy OK

Track 8 Filename H:\Music\Ambient, Chillout, Downtempo\Compilation\VA - Afro Zen Chillout (2CD) (Soul Candi, 2008) (Flac)\CD2 - Rejuvenation\08. Indidginus - Gene Swarm (feat. Pablo Sandoz).wav Peak level 97.4 %
Extraction speed 2.1 X
Track quality 100.0 %
Test CRC 2A527069
Copy CRC 2A527069
Track not present in AccurateRip database
Copy OK

Track 9 Filename H:\Music\Ambient, Chillout, Downtempo\Compilation\VA - Afro Zen Chillout (2CD) (Soul Candi, 2008) (Flac)\CD2 - Rejuvenation\09. Goldfish - The Real Deal (Fishy Beat Remix).wav Peak level 97.4 %
Extraction speed 2.0 X
Track quality 99.9 %
Test CRC E1FAD7C4
Copy CRC E1FAD7C4
Track not present in AccurateRip database
Copy OK

None of the tracks are present in the AccurateRip database

No errors occurred

End of status report

==== Log checksum A398FC0072FBFA146ED8B9275EC3B6EE02907715CA282FB20E448A08AC159019 ====
DOWNLOAD LINKS
Buy Premium From My Links To Get Resumable Support & Max Speed & To Support Me


Links are Interchangeable - No Password - Single Extraction
Direct Download

Tags: Chillout

V.A. - Afro Zen Chillout (2008) Download via Hotfile Rapidshare Fileserve Megaupload & FileSonic, V.A. - Afro Zen Chillout (2008) free torrent downloads included crack, serial, keygen.V.A. - Afro Zen Chillout (2008) Fast Download via Rapidshare Hotfile Fileserve Filesonic Megaupload, V.A. - Afro Zen Chillout (2008) Torrents and Emule Download or anything related.
Leave a Comment
Your Name:
E-Mail:
Add Comments:

Enter Code: