Steve Hillage Band - Live in England 1979 (2013)

Download Now

Steve Hillage Band - Live in England 1979 (2013)

Steve Hillage Band - Live in England 1979 (2013)
EAC | Flac(Image) + Cue + Log & MP3 CBR 320Kbps
Gonzo Multimedia, HST129CD | ~ 322 or 139 Mb | Scans(png) -> 140 Mb
Progressive Rock / Art-Rock | CD only

"Steve Hillage first came to prominence as a member of the multi-national rock band Gong. Steve appeared on successful albums such as Angels Egg, You and his final album with the band Sharmal. Steve recorded his first solo album in 1975 entitled Fish Rising. This album was recorded whilst still a member of Gong. Shortly after, however, Steve and his partner Miquette Giraudy left Gong, embarking on a career that continues to this day under the name System Seven..."


Tracklist:

01. Salmon Song (Steve Hillage, Miquette Giraudy)
02. Upzipping the Zype (Steve Hillage, Miquette Giraudy, Andy Anderson, J. McKenzie)
03. Hurdy Gurdy Man (Donovan P. Leitch)
04. 1988 Activator (Steve Hillage)
05. Unidentified (Flying Being) (Steve Hillage, Miquette Giraudy)
06. It's All Too Much (George Harrison)

Bonus:
07. Hurdy Gurdy Glissando (live 1977)
08. Electric Gypsies (live 1977)

Musicians:

Steve Hillage {guitar, vocals}
Miquette Giraudy {synthesiser, vocals}
Andy Anderson {drums}
Christian Boule {rhythm guitar, glissando guitar}
John McKenzie {bass}


Exact Audio Copy V1.0 beta 3 from 29. August 2011

EAC extraction logfile from 11. December 2014, 10:27

Steve Hillage Band / Live in England 1979

Used drive : hp DVD A DH16ABSH Adapter: 0 ID: 1

Read mode : Secure
Utilize accurate stream : Yes
Defeat audio cache : Yes
Make use of C2 pointers : No

Read offset correction

: 6
Overread into Lead-In and Lead-Out : No
Fill up missing offset samples with silence : Yes
Delete leading and trailing silent blocks : No
Null samples used in CRC calculations : Yes
Used interface
: Native Win32 interface for Win NT & 2000

Used output format : User Defined Encoder
Selected bitrate : 128 kBit/s
Quality : High
Add ID3 tag : No
Command line compressor : C:\Program Files (x86)\EAC\Wavpack\wavpack.exe
Additional command line options : -hm %source%

TOC of the extracted CD Track | Start | Length | Start sector | End sector
--1 | 0:00.00 | 7:36.19 | 0 | 34218 2 | 7:36.19 | 8:43.38 | 34219 | 73481 3 | 16:19.57 | 7:25.56 | 73482 | 106912 4 | 23:45.38 | 2:38.57 | 106913 | 118819 5 | 26:24.20 | 9:39.34 | 118820 | 162278 6 | 36:03.54 | 6:58.45 | 162279 | 193673 7 | 43:02.24 | 9:33.64 | 193674 | 236712 8 | 52:36.13 | 6:23.38 | 236713 | 265475

Range status and errors

Selected range Filename C:\_NL+_\CD41\Steve Hillage Band - Live in England 1979.wav Peak level 100.0 %
Extraction speed 5.9 X
Range quality 100.0 %
Test CRC B9D2B7F6
Copy CRC B9D2B7F6
Copy OK

No errors occurred


AccurateRip summary

Track 1 not present in database
Track 2 not present in database
Track 3 not present in database
Track 4 not present in database
Track 5 not present in database
Track 6 not present in database
Track 7 not present in database
Track 8 not present in database

None of the tracks are present in the AccurateRip database

End of status report

==== Log checksum 89783E4CAA9CB47287D3D29445C709467D004F8A5E321776DBA1874B60B3E91F ====

foobar2000 1.2.9 / Dynamic Range Meter 1.1.1
log date: 2015-10-10 11:11:24

Analyzed: Steve Hillage Band / Live in England 1979

DR Peak RMS Duration Track

DR8 -0.01 dB -10.14 dB 7:36 01-Salmon Song
DR9 0.00 dB -11.08 dB 8:44 02-Upzipping the Zype
DR9 -0.01 dB -10.03 dB 7:26 03-Hurdy Gurdy Man
DR8 -0.01 dB -9.06 dB 2:39 04-1988 Activator
DR9 -0.01 dB -10.92 dB 9:39 05-Unidentified (Flying Being)
DR8 -0.01 dB -9.25 dB 6:59 06-It's All Too Much
DR5 0.00 dB -7.89 dB 9:34 07-Hurdy Gurdy Glissando (live 1977)
DR6 -0.35 dB -8.17 dB 6:24 08-Electric Gypsies (live 1977)

Number of tracks: 8
Official DR value: DR8

Samplerate: 44100 Hz
Channels: 2
Bits per sample: 16
Bitrate: 741 kbps
Codec: FLAC

[CUETools log; Date: 10.10.2015 11:11:14; Version: 2.1.4]
[CTDB TOCID: 5mbn9U_F0QtFO.9.FKUcwX0.e8g-] disk not present in database.
[AccurateRip ID: 00122e98-0078e549-790dd308] disk not present in database.

Track Peak [ CRC32 ] [W/O NULL] [ LOG ]
-- 100,0 9D2B7F6 [794F4ABB] CRC32
01 99,9 [D3ADB1FA] [885D5A1E]
02 100,0 [F087C393] [FB04B4F7]
03 99,9 [68ADB64A] [24E9EC35]
04 99,9 [7591D01E] [D17C9EFB]
05 99,9 B20ADA0 [9CB90AD3]
06 99,9 [8824138B] [86CCCDDF]
07 100,0 [C74295AA] [87188DA5]
08 96,0 9A77CBB [F8FB0E70]

Steve Hillage Band - Live in England 1979 (2013)

All thanks go to tatuk

Download Steve Hillage Band - Live in England 1979 (2013):

DOWNLOAD LINKS
Buy Premium From My Links To Get Resumable Support & Max Speed & To Support Me


Links are Interchangeable - No Password - Single Extraction
Direct Download

Tags: Hillage, England

Steve Hillage Band - Live in England 1979 (2013) Download via Hotfile Rapidshare Fileserve Megaupload & FileSonic, Steve Hillage Band - Live in England 1979 (2013) free torrent downloads included crack, serial, keygen.Steve Hillage Band - Live in England 1979 (2013) Fast Download via Rapidshare Hotfile Fileserve Filesonic Megaupload, Steve Hillage Band - Live in England 1979 (2013) Torrents and Emule Download or anything related.
Leave a Comment
Your Name:
E-Mail:
Add Comments:

Enter Code: